<?xml version="1.0" standalone="no"?>
<!DOCTYPE svg PUBLIC "-//W3C//DTD SVG 1.1//EN" "http://www.w3.org/Graphics/SVG/1.1/DTD/svg11.dtd" >
<svg xmlns="http://www.w3.org/2000/svg" xmlns:xlink="http://www.w3.org/1999/xlink" version="1.1">
<metadata>
Created by FontForge 20170731 at Sat Jul  2 10:04:34 2022
 By Aleksey,,,
Modern and elegant sans serif font family.
</metadata>
<defs>
<font id="Mont-Bold" horiz-adv-x="0" >
  <font-face 
    font-family="Mont Bold"
    font-weight="800"
    font-stretch="normal"
    units-per-em="2048"
    panose-1="0 0 9 0 0 0 0 0 0 0"
    ascent="1638"
    descent="-410"
    x-height="1106"
    cap-height="1434"
    bbox="-1638 -632 2429 2048"
    underline-thickness="102"
    underline-position="-307"
    unicode-range="U+0020-25CA"
  />
<missing-glyph horiz-adv-x="952" 
d="M780 1505v-1904h-603v1904h603zM634 1377h-314v-63h123v-70h-125v-63h316v63h-126v70h126v63zM508 1132h-190v-198h316v64h-126v134zM443 1067v-69h-62v69h62zM634 882h-316v-63h125v-70h-125v-63h190v133h126v63zM634 768h-63v-126h-253v-64h316v190zM634 536h-191v-107
h65v44h63v-89h-190v152h-63v-215h316v215zM634 207h-316v-215h316v215zM571 144v-90h-190v90h190zM634 -52h-316v-63h133l-133 -89v-63h316v63h-194l133 89h61v63z" />
    <glyph glyph-name="f_f.liga" unicode="ff" horiz-adv-x="1615" 
d="M1587 1091v-246h-278v-845h-299v845h-467v-845h-299v845h-192v246h193v100q0 162 90 254.5t261 92.5h223v-235h-163q-121 0 -121 -119v-93h476v100q0 162 90 254.5t261 92.5h223v-235h-163q-121 0 -121 -119v-93h286z" />
    <glyph glyph-name="f_f_t.liga" unicode="fft" horiz-adv-x="2441" 
d="M2249 276h126v-276h-166q-204 0 -324.5 120.5t-120.5 324.5v400h-455v-845h-299v845h-467v-845h-299v845h-192v246h193v100q0 162 90 254.5t261 92.5h223v-235h-163q-121 0 -121 -119v-93h476v100q0 162 90 254.5t261 92.5h209v-235h-149q-121 0 -121 -119v-93h463v324
h299v-324h311v-246h-311v-383q0 -90 48 -138t138 -48z" />
    <glyph glyph-name="f_t.liga" unicode="ft" horiz-adv-x="1710" 
d="M1518 276h127v-276h-166q-204 0 -324.5 120.5t-120.5 324.5v400h-491v-845h-299v845h-192v246h193v100q0 162 90 254.5t261 92.5h223v-235h-163q-121 0 -121 -119v-93h499v324h299v-324h311v-246h-311v-383q0 -90 47.5 -138t137.5 -48z" />
    <glyph glyph-name="f_t_t.liga" unicode="ftt" horiz-adv-x="2494" 
d="M2302 276h127v-276h-167q-203 0 -323.5 120.5t-120.5 324.5v400h-520v-383q0 -90 47.5 -138t137.5 -48h127v-276h-166q-204 0 -324.5 120.5t-120.5 324.5v400h-456v-845h-299v845h-192v246h193v104q0 162 90 254.5t261 92.5h223v-235h-163q-121 0 -121 -120v-96h464v324
h299v-324h520v324h299v-324h311v-246h-311v-383q0 -90 47.5 -138t137.5 -48z" />
    <glyph glyph-name="r_f.liga" unicode="rf" horiz-adv-x="1662" 
d="M1633 1106v-251h-279v-855h-299v855h-191v251h193v85q0 162 90 254.5t261 92.5h223v-235h-163q-121 0 -121 -119v-78h286zM389 970q59 73 136 107t184 34h78v-276h-109q-126 -1 -180.5 -60.5t-54.5 -195.5v-579h-299v1106h191z" />
    <glyph glyph-name="t_f.liga" unicode="tf" horiz-adv-x="1622" 
d="M1591 1091v-246h-278v-845h-299v845h-501v-410q0 -81 44.5 -125t125.5 -44h120v-266h-196q-182 0 -287.5 105.5t-105.5 289.5v450h-199v59l437 491h56v-304h508v116q0 162 90 254.5t261 92.5h222v-235h-162q-122 0 -122 -120v-108h286z" />
    <glyph glyph-name=".notdef" horiz-adv-x="952" 
d="M780 1505v-1904h-603v1904h603zM634 1377h-314v-63h123v-70h-125v-63h316v63h-126v70h126v63zM508 1132h-190v-198h316v64h-126v134zM443 1067v-69h-62v69h62zM634 882h-316v-63h125v-70h-125v-63h190v133h126v63zM634 768h-63v-126h-253v-64h316v190zM634 536h-191v-107
h65v44h63v-89h-190v152h-63v-215h316v215zM634 207h-316v-215h316v215zM571 144v-90h-190v90h190zM634 -52h-316v-63h133l-133 -89v-63h316v63h-194l133 89h61v63z" />
    <glyph glyph-name=".null" 
 />
    <glyph glyph-name="nonmarkingreturn" horiz-adv-x="682" 
 />
    <glyph glyph-name="space" unicode=" " horiz-adv-x="489" 
 />
    <glyph glyph-name="exclam" unicode="!" horiz-adv-x="636" 
d="M167 463v1012h303v-1012h-303zM160 0v320h317v-320h-317z" />
    <glyph glyph-name="quotedbl" unicode="&#x22;" horiz-adv-x="940" 
d="M125 893v545h276v-545h-276zM539 893v545h277v-545h-277z" />
    <glyph glyph-name="numbersign" unicode="#" horiz-adv-x="1329" 
d="M1234 831h-156l-33 -229h142v-258h-185l-50 -342h-272l51 342h-231l-55 -342h-273l55 342h-134v258h176l37 229h-165v248h204l55 355h273l-54 -355h222l54 355h272l-54 -355h121v-248zM773 602l33 229h-227l-37 -229h231z" />
    <glyph glyph-name="dollar" unicode="$" horiz-adv-x="1220" 
d="M1140 415q0 -180 -110.5 -289t-292.5 -137v-144h-236v143q-193 29 -305.5 150t-112.5 310h301q0 -91 67 -140.5t164 -49.5q89 0 155.5 42t66.5 112q0 77 -97 119q-46 20 -176 51q-176 42 -254 80q-187 91 -205 284q-2 22 -2 45q0 167 101 270t280 129v133h238v-133
q181 -28 279 -141.5t98 -291.5h-295q0 83 -59.5 127t-149.5 44q-80 0 -137.5 -32t-57.5 -92q0 -23 8 -42t28 -34t37 -25.5t53.5 -22t58 -17t68.5 -17.5l12 -3q47 -12 72.5 -18.5t71.5 -20.5t73.5 -26t66.5 -32.5t63 -41.5t51 -51.5t42 -64.5t25 -78.5t10 -94.5z" />
    <glyph glyph-name="percent" unicode="%" horiz-adv-x="1626" 
d="M386 734q-143 0 -234.5 92t-91.5 235t91.5 234.5t234.5 91.5q144 0 235 -91.5t91 -234.5t-91.5 -235t-234.5 -92zM277 0l821 1363h237l-820 -1363h-238zM386 944q50 0 82 33t32 84t-32 83.5t-82 32.5q-49 0 -81 -32.5t-32 -83.5q0 -50 32 -83.5t81 -33.5zM1239 -20
q-143 0 -234.5 91.5t-91.5 234.5t91.5 234.5t234.5 91.5t234.5 -91.5t91.5 -234.5t-91.5 -234.5t-234.5 -91.5zM1239 190q50 0 82 33t32 83q0 51 -32 83.5t-82 32.5q-49 0 -81 -32.5t-32 -83.5q0 -50 32 -83t81 -33z" />
    <glyph glyph-name="ampersand" unicode="&#x26;" horiz-adv-x="1323" 
d="M1319 0h-322q-14 15 -39 44t-37 42q-167 -110 -390 -110q-202 0 -325.5 112t-123.5 298q0 72 19.5 134.5t56 112t79 87.5t97.5 74q-77 112 -105.5 184t-28.5 137q0 154 111 247.5t294 93.5q180 0 291 -93.5t111 -246.5q0 -56 -18.5 -106t-45.5 -87t-71.5 -75t-83 -63
t-94.5 -57q83 -104 224 -268q49 97 58 218h252q-10 -245 -133 -422zM605 1238q-63 0 -100.5 -34.5t-37.5 -90.5q0 -64 87 -195q94 52 141.5 96t47.5 100t-38 90t-100 34zM559 233q104 0 191 48q-182 211 -267 316q-121 -94 -121 -202q0 -73 54 -117.5t143 -44.5z" />
    <glyph glyph-name="quotesingle" unicode="'" horiz-adv-x="526" 
d="M125 893v545h276v-545h-276z" />
    <glyph glyph-name="parenleft" unicode="(" horiz-adv-x="712" 
d="M383 -303q-141 200 -218.5 443.5t-77.5 510.5q0 269 77.5 513.5t218.5 445.5h331q-61 -77 -116.5 -175.5t-105 -220.5t-79 -269t-29.5 -294q0 -146 28.5 -292.5t77 -268t104.5 -219.5t117 -174h-328z" />
    <glyph glyph-name="parenright" unicode=")" horiz-adv-x="712" 
d="M330 -303h-328q61 76 117 174t104.5 219.5t77 268t28.5 292.5q0 147 -29.5 294t-79 269t-105 220.5t-116.5 175.5h331q141 -201 218.5 -445.5t77.5 -513.5q0 -267 -77.5 -510.5t-218.5 -443.5z" />
    <glyph glyph-name="asterisk" unicode="*" horiz-adv-x="874" 
d="M806 1110l-184 -63l128 -150l-175 -144l-138 171l-138 -171l-174 144l128 150l-184 63l75 212l181 -66v192h225v-192l180 66z" />
    <glyph glyph-name="plus" unicode="+" horiz-adv-x="1120" 
d="M1047 820v-274h-340v-362h-294v362h-340v274h340v352h294v-352h340z" />
    <glyph glyph-name="comma" unicode="," horiz-adv-x="567" 
d="M138 -324v146q79 11 117.5 60t38.5 118h-171v319h322v-294q0 -151 -83.5 -242.5t-223.5 -106.5z" />
    <glyph glyph-name="hyphen" unicode="-" horiz-adv-x="919" 
d="M126 431v288h668v-288h-668z" />
    <glyph glyph-name="period" unicode="." horiz-adv-x="561" 
d="M123 0v320h316v-320h-316z" />
    <glyph glyph-name="slash" unicode="/" horiz-adv-x="1026" 
d="M43 -167l624 1726h314l-624 -1726h-314z" />
    <glyph glyph-name="zero" unicode="0" horiz-adv-x="1298" 
d="M649 -25q-254 0 -403 190.5t-149 516.5q0 327 148 516.5t404 189.5t404 -189.5t148 -516.5q0 -326 -149 -516.5t-403 -190.5zM649 248q125 0 191 111t66 321t-67 322.5t-190 112.5q-125 0 -191 -111.5t-66 -321.5t66 -322t191 -112z" />
    <glyph glyph-name="one" unicode="1" horiz-adv-x="737" 
d="M70 1362h500v-1362h-288v1105h-212v257z" />
    <glyph glyph-name="two" unicode="2" horiz-adv-x="1122" 
d="M606 275h416v-275h-955v64q293 338 419 496t170.5 241t44.5 158q0 71 -43.5 114.5t-112.5 43.5q-72 0 -115.5 -44.5t-43.5 -117.5v-26h-293v30q0 190 122.5 310.5t324.5 120.5q201 0 328.5 -120t127.5 -308q0 -131 -80 -275.5t-310 -411.5z" />
    <glyph glyph-name="three" unicode="3" horiz-adv-x="1128" 
d="M705 858q152 -34 242.5 -147.5t90.5 -273.5q0 -200 -137.5 -331t-345.5 -131q-203 0 -333 126.5t-137 328.5h292q4 -83 52.5 -132.5t125.5 -49.5q82 0 135 55.5t53 142.5t-57 138.5t-151 51.5h-198v55l248 409h-467v262h868v-54z" />
    <glyph glyph-name="four" unicode="4" horiz-adv-x="1140" 
d="M1081 517v-256h-118v-261h-275v261h-654v53l449 1048h289l-362 -845h285l47 324h221v-324h118z" />
    <glyph glyph-name="five" unicode="5" horiz-adv-x="1116" 
d="M549 886q212 0 349.5 -126.5t137.5 -320.5q0 -199 -137 -331.5t-340 -132.5q-206 0 -341.5 128.5t-136.5 324.5h295q1 -78 52.5 -129t130.5 -51q78 0 130 54.5t52 136.5q0 87 -57 142.5t-146 55.5h-382l-28 37l77 688h736v-262h-505l-24 -214h137z" />
    <glyph glyph-name="six" unicode="6" horiz-adv-x="1169" 
d="M668 904q195 0 321.5 -122t126.5 -316q0 -215 -144 -353t-369 -138q-229 0 -373 137t-144 354q0 96 31.5 197.5t109.5 234.5l271 466h321q-45 -77 -138.5 -237.5t-139.5 -241.5q61 19 127 19zM601 247q96 0 158 61t62 158q0 98 -61.5 159.5t-158.5 61.5q-95 0 -157.5 -62
t-62.5 -159q0 -96 62.5 -157.5t157.5 -61.5z" />
    <glyph glyph-name="seven" unicode="7" horiz-adv-x="1073" 
d="M58 1362h975v-39l-520 -1323h-303l436 1100h-588v262z" />
    <glyph glyph-name="eight" unicode="8" horiz-adv-x="1204" 
d="M934 723q177 -113 177 -312q0 -191 -143 -313.5t-366 -122.5q-224 0 -366 121.5t-142 314.5q0 199 177 312q-140 110 -140 278q0 171 131.5 280t340.5 109t339.5 -108.5t130.5 -280.5q0 -173 -139 -278zM603 1152q-81 0 -133.5 -45.5t-52.5 -113.5q0 -69 52.5 -114.5
t133.5 -45.5t132.5 45.5t51.5 114.5t-51.5 114t-132.5 45zM603 226q97 0 156.5 52.5t59.5 136.5t-59.5 136.5t-156.5 52.5t-157 -52.5t-60 -136.5t60 -136.5t157 -52.5z" />
    <glyph glyph-name="nine" unicode="9" horiz-adv-x="1169" 
d="M567 1390q229 0 373 -137t144 -354q0 -96 -31.5 -197.5t-109.5 -234.5l-272 -467h-322q221 378 280 480q-61 -19 -127 -19q-197 0 -322 122.5t-125 315.5q0 215 144 353t368 138zM569 676q101 0 167 62t66 161q0 98 -66 160.5t-167 62.5q-102 0 -167.5 -62.5
t-65.5 -160.5q0 -99 65 -161t168 -62z" />
    <glyph glyph-name="colon" unicode=":" horiz-adv-x="569" 
d="M126 749v319h317v-319h-317zM126 0v320h317v-320h-317z" />
    <glyph glyph-name="semicolon" unicode=";" horiz-adv-x="577" 
d="M131 751v320h317v-320h-317zM142 -324v146q79 11 117.5 60t38.5 118h-171v319h322v-294q0 -151 -83.5 -242.5t-223.5 -106.5z" />
    <glyph glyph-name="less" unicode="&#x3c;" horiz-adv-x="1087" 
d="M934 1279v-336l-466 -267l466 -262v-337l-880 562v68z" />
    <glyph glyph-name="equal" unicode="=" horiz-adv-x="1253" 
d="M135 765v274h983v-274h-983zM135 314v275h983v-275h-983z" />
    <glyph glyph-name="greater" unicode="&#x3e;" horiz-adv-x="1087" 
d="M153 1279l881 -572v-68l-881 -562v337l466 262l-466 267v336z" />
    <glyph glyph-name="question" unicode="?" horiz-adv-x="1107" 
d="M371 446v45q0 62 13.5 114t31 86t50.5 68.5t54.5 51.5t60.5 45q38 27 56.5 42.5t43 41.5t34.5 55.5t10 66.5q0 82 -55 133t-133 51q-79 0 -138.5 -51t-60.5 -139h-280q1 111 42.5 200.5t110 145t153 85t175.5 29.5q93 0 178.5 -30.5t152.5 -87t107 -144t40 -192.5
q0 -47 -7.5 -87.5t-24 -74t-31.5 -57.5t-43 -50.5t-44 -40t-48 -38.5q-38 -29 -57.5 -46t-44 -45.5t-35 -60.5t-10.5 -71v-45h-301zM362 0v320h317v-320h-317z" />
    <glyph glyph-name="at" unicode="@" horiz-adv-x="2043" 
d="M1022 1343q148 0 285.5 -35t256 -106.5t206.5 -172t138 -240.5t50 -303q0 -116 -34.5 -208.5t-93 -149t-129.5 -86t-148 -29.5q-87 0 -156 31.5t-109 89.5q-125 -135 -313 -135q-198 0 -328.5 131.5t-130.5 330.5t130.5 329.5t328.5 130.5q177 0 297 -117l30 65h140v-500
q0 -60 34.5 -96.5t84.5 -36.5q66 0 113.5 65t47.5 185q0 181 -87 324.5t-245.5 224.5t-361.5 81t-366 -84t-255 -233.5t-92 -335.5q0 -182 83.5 -325t234 -222.5t342.5 -79.5q179 0 329 66v-226q-189 -70 -359 -70q-186 0 -347 64.5t-275 177t-179.5 272t-65.5 343.5
q0 168 51.5 312.5t141 247.5t209.5 176t257.5 108.5t284.5 35.5zM996 251q93 0 153 59.5t60 152.5t-60 152t-153 59t-153 -59.5t-60 -151.5t60 -152t153 -60z" />
    <glyph glyph-name="A" unicode="A" horiz-adv-x="1470" 
d="M1116 0l-100 272h-571l-98 -272h-329l562 1434h292l580 -1434h-336zM729 1055l-187 -513h376z" />
    <glyph glyph-name="B" unicode="B" horiz-adv-x="1314" 
d="M1026 756q95 -49 147 -138.5t52 -203.5q0 -172 -132.5 -293t-319.5 -121h-609v1434h593q185 0 308 -105.5t123 -263.5q0 -92 -43 -174t-119 -135zM887 1017q0 68 -44 110t-116 42h-258v-305h258q73 0 116.5 42.5t43.5 110.5zM744 285q76 0 122.5 45t46.5 116
q0 70 -46.5 115t-122.5 45h-275v-321h275z" />
    <glyph glyph-name="C" unicode="C" horiz-adv-x="1579" 
d="M821 -31q-155 0 -292.5 57.5t-235.5 156.5t-155 237.5t-57 294.5q0 158 57 297t155 238t235.5 156.5t292.5 57.5q261 0 452.5 -158t241.5 -413h-311q-45 128 -146.5 201.5t-236.5 73.5q-182 0 -304 -129.5t-122 -323.5q0 -193 122 -321.5t304 -128.5q141 0 244 79.5
t142 216.5h313q-49 -266 -241 -429t-458 -163z" />
    <glyph glyph-name="D" unicode="D" horiz-adv-x="1517" 
d="M706 1434q156 0 291.5 -54t231 -148.5t150 -227.5t54.5 -286q0 -154 -55 -287.5t-150.5 -228t-231 -148.5t-290.5 -54h-542v1434h542zM699 288q184 0 300.5 120.5t116.5 309.5t-116.5 308.5t-300.5 119.5h-225v-858h225z" />
    <glyph glyph-name="E" unicode="E" horiz-adv-x="1144" 
d="M474 289h573v-289h-883v1434h861v-287h-551v-283h497v-281h-497v-294z" />
    <glyph glyph-name="F" unicode="F" horiz-adv-x="1095" 
d="M1020 1145h-546v-315h493v-281h-493v-549h-310v1434h856v-289z" />
    <glyph glyph-name="G" unicode="G" horiz-adv-x="1632" 
d="M793 749h763q0 -222 -92.5 -400t-260 -279t-379.5 -101q-156 0 -293.5 56.5t-236.5 155t-156 237t-57 297.5t56 298t153 238.5t234 156.5t294 57q176 0 328.5 -69.5t255 -194t135.5 -283.5h-320q-46 115 -152 182.5t-241 67.5q-190 0 -309.5 -126t-119.5 -327
q0 -200 118 -325t311 -125q139 0 249 67.5t150 178.5h-430v238z" />
    <glyph glyph-name="H" unicode="H" horiz-adv-x="1488" 
d="M1014 1434h310v-1434h-310v593h-540v-593h-310v1434h310v-553h540v553z" />
    <glyph glyph-name="I" unicode="I" horiz-adv-x="638" 
d="M164 0v1434h310v-1434h-310z" />
    <glyph glyph-name="J" unicode="J" horiz-adv-x="1247" 
d="M575 -31q-232 0 -380 146t-148 374v52h306v-36q0 -111 60.5 -177.5t161.5 -66.5q96 0 155 66t59 178v929h306v-945q0 -229 -143.5 -374.5t-376.5 -145.5z" />
    <glyph glyph-name="K" unicode="K" horiz-adv-x="1343" 
d="M1359 0h-379l-506 700v-700h-310v1434h310v-663l470 663h362l-488 -687z" />
    <glyph glyph-name="L" unicode="L" horiz-adv-x="1069" 
d="M474 288h550v-288h-860v1434h310v-1146z" />
    <glyph glyph-name="M" unicode="M" horiz-adv-x="1996" 
d="M1921 0h-316l-141 936l-428 -933h-76l-428 932l-141 -935h-316l224 1434h311l388 -879l389 879h312z" />
    <glyph glyph-name="N" unicode="N" horiz-adv-x="1540" 
d="M1073 1434h304v-1434h-259l-650 896v-896h-304v1434h280l629 -875v875z" />
    <glyph glyph-name="O" unicode="O" horiz-adv-x="1685" 
d="M845 -31q-162 0 -304 57.5t-243.5 156.5t-160 238t-58.5 296t58.5 296t160 238t243.5 156.5t304 57.5q161 0 302.5 -57t242 -156.5t158.5 -238t58 -296.5t-58 -296.5t-158.5 -238t-242 -156.5t-302.5 -57zM845 261q191 0 319 130.5t128 325.5t-128 325t-319 130
t-321 -131t-130 -324t130 -324.5t321 -131.5z" />
    <glyph glyph-name="P" unicode="P" horiz-adv-x="1273" 
d="M716 1434q142 0 257.5 -63.5t182 -177t66.5 -252.5q0 -212 -145 -352.5t-361 -140.5h-242v-448h-310v1434h552zM702 735q91 0 148 58t57 148t-56.5 147.5t-148.5 57.5h-228v-411h228z" />
    <glyph glyph-name="Q" unicode="Q" horiz-adv-x="1689" 
d="M1663 -154h-316l-167 193q-156 -70 -335 -70q-162 0 -304 57.5t-243 156.5t-159.5 238t-58.5 296t58.5 296t159.5 238t243 156.5t304 57.5q161 0 302.5 -57t242 -156.5t158.5 -238t58 -296.5q0 -161 -59.5 -301t-166.5 -242zM845 261q63 0 128 18l-285 330h316l174 -202
q114 128 114 310q0 195 -128 325t-319 130t-321 -131t-130 -324t130 -324.5t321 -131.5z" />
    <glyph glyph-name="R" unicode="R" horiz-adv-x="1353" 
d="M953 0l-280 489h-199v-489h-310v1434h579q216 0 358.5 -134.5t142.5 -340.5q0 -139 -70 -248.5t-191 -168.5l317 -542h-347zM474 1147v-371h248q96 0 152 51.5t56 133.5t-56 134t-152 52h-248z" />
    <glyph glyph-name="S" unicode="S" horiz-adv-x="1267" 
d="M640 -28q-250 0 -403 132.5t-153 360.5h312q0 -99 70 -152.5t172 -53.5q93 0 162 46t69 123q0 27 -9.5 49t-32 39t-43 29t-60.5 24t-65.5 18.5t-76.5 18.5q-180 44 -260 83q-190 91 -214 280q-4 30 -4 62q0 204 139.5 316.5t380.5 112.5q246 0 381.5 -122.5t135.5 -338.5
h-307q0 88 -62.5 134.5t-155.5 46.5q-83 0 -142.5 -35t-59.5 -101q0 -29 15.5 -53t36.5 -39t63 -30.5t72.5 -23.5t88.5 -22q49 -12 75.5 -19t74.5 -22t76 -27.5t69 -34t65.5 -43t53 -53.5t43.5 -67t25.5 -81t10.5 -98q0 -113 -43 -202t-117.5 -144.5t-172 -84t-210.5 -28.5z
" />
    <glyph glyph-name="T" unicode="T" horiz-adv-x="1196" 
d="M1152 1434v-288h-399v-1146h-310v1146h-398v288h1107z" />
    <glyph glyph-name="U" unicode="U" horiz-adv-x="1482" 
d="M742 -31q-256 0 -424.5 160.5t-168.5 410.5v894h311v-880q0 -133 78.5 -213t203.5 -80t203 80t78 213v880h311v-894q0 -250 -168 -410.5t-424 -160.5z" />
    <glyph glyph-name="V" unicode="V" horiz-adv-x="1437" 
d="M1073 1434h339l-542 -1434h-293l-561 1434h343l362 -1014z" />
    <glyph glyph-name="W" unicode="W" horiz-adv-x="2131" 
d="M1778 1434h324l-442 -1434h-276l-320 804l-311 -804h-276l-452 1434h329l281 -953l377 938h104l387 -938z" />
    <glyph glyph-name="X" unicode="X" horiz-adv-x="1280" 
d="M1274 0h-348l-283 492l-286 -492h-349l446 752l-418 682h349l256 -442l258 442h340l-412 -693z" />
    <glyph glyph-name="Y" unicode="Y" horiz-adv-x="1390" 
d="M1358 1434l-505 -855v-579h-318v581l-500 853h330l331 -574l332 574h330z" />
    <glyph glyph-name="Z" unicode="Z" horiz-adv-x="1193" 
d="M521 288h616v-288h-1084v46l598 1100h-563v288h1026v-57z" />
    <glyph glyph-name="bracketleft" unicode="[" horiz-adv-x="720" 
d="M166 -306v1943h472v-252h-192v-1435h196v-256h-476z" />
    <glyph glyph-name="backslash" unicode="\" horiz-adv-x="1026" 
d="M983 -167h-315l-623 1726h314z" />
    <glyph glyph-name="bracketright" unicode="]" horiz-adv-x="720" 
d="M554 -306h-476v256h196v1435h-192v252h472v-1943z" />
    <glyph glyph-name="asciicircum" unicode="^" horiz-adv-x="1165" 
d="M60 694l501 744h46l497 -744h-337l-186 310l-184 -310h-337z" />
    <glyph glyph-name="underscore" unicode="_" horiz-adv-x="1056" 
d="M0 -359v286h1057v-286h-1057z" />
    <glyph glyph-name="grave" unicode="`" horiz-adv-x="1228" 
d="M668 1228h-226l-203 312h318z" />
    <glyph glyph-name="a" unicode="a" horiz-adv-x="1413" 
d="M1046 1108h224v-1106h-235l-26 99q-151 -132 -358 -132q-164 0 -297 76t-208 210.5t-75 299.5q0 164 75 297.5t208 209t297 75.5q211 0 363 -135zM675 252q130 0 215.5 86t85.5 217t-85.5 217t-215.5 86t-215.5 -86.5t-85.5 -216.5t85.5 -216.5t215.5 -86.5z" />
    <glyph glyph-name="b" unicode="b" horiz-adv-x="1398" 
d="M746 1137q166 0 299 -75.5t207.5 -209t74.5 -299.5t-74.5 -299.5t-207.5 -209t-299 -75.5q-199 0 -346 123l-36 -92h-220v1505h299v-459q133 91 303 91zM722 252q130 0 215.5 86t85.5 215q0 131 -85.5 217t-215.5 86t-216 -86.5t-86 -216.5q0 -129 86 -215t216 -86z" />
    <glyph glyph-name="c" unicode="c" horiz-adv-x="1280" 
d="M658 -31q-123 0 -232 45.5t-187 123.5t-123 187t-45 231t45 230t123 185t187.5 121.5t233.5 44.5q214 0 367.5 -124.5t194.5 -329.5h-297q-36 82 -107 127.5t-160 45.5q-121 0 -202.5 -86.5t-81.5 -214.5t82 -216.5t202 -88.5q91 0 160 48t107 137h301
q-39 -209 -195.5 -337.5t-372.5 -128.5z" />
    <glyph glyph-name="d" unicode="d" horiz-adv-x="1398" 
d="M956 1505h299v-1505h-221l-35 92q-147 -125 -347 -125q-251 0 -416 167t-165 419q0 124 44 232.5t120.5 185.5t184.5 121.5t232 44.5q169 0 304 -91v459zM677 250q130 0 215.5 86.5t85.5 216.5t-85.5 216.5t-215.5 86.5t-215.5 -86t-85.5 -217t85.5 -217t215.5 -86z" />
    <glyph glyph-name="e" unicode="e" horiz-adv-x="1286" 
d="M1217 557q0 -45 -6 -88h-837q19 -113 90.5 -173.5t180.5 -60.5q77 0 138.5 34t95.5 94h314q-60 -181 -208 -287.5t-340 -106.5q-161 0 -292.5 76.5t-206.5 210.5t-75 297q0 164 74.5 298t206 210t293.5 76q166 0 298 -78.5t203 -210.5t71 -291zM645 882q-99 0 -168 -55
t-95 -154h536q-31 101 -101.5 155t-171.5 54z" />
    <glyph glyph-name="f" unicode="f" horiz-adv-x="849" 
d="M821 1091v-246h-278v-845h-299v845h-192v246h193v100q0 162 90 254.5t261 92.5h223v-235h-163q-121 0 -121 -119v-93h286z" />
    <glyph glyph-name="g" unicode="g" horiz-adv-x="1374" 
d="M1036 1106h194v-978q0 -259 -151 -408.5t-414 -149.5q-225 0 -375 108t-188 298h297q24 -71 98.5 -110.5t162.5 -39.5q117 0 197 70.5t80 188.5v42q-141 -99 -316 -99q-152 0 -278.5 73t-199 200.5t-72.5 280.5q0 152 72.5 279.5t199 201.5t278.5 74q215 0 367 -141z
M656 295q122 0 202 81.5t80 205.5q0 123 -79.5 203.5t-202.5 80.5q-122 0 -202 -80.5t-80 -203.5q0 -124 79.5 -205.5t202.5 -81.5z" />
    <glyph glyph-name="h" unicode="h" horiz-adv-x="1312" 
d="M777 1132q187 0 296.5 -124t109.5 -336v-672h-299v622q0 126 -46.5 187t-146.5 61q-113 0 -180.5 -77.5t-67.5 -211.5v-581h-299v1505h299v-502q135 129 334 129z" />
    <glyph glyph-name="i" unicode="i" horiz-adv-x="585" 
d="M144 1253v278h298v-278h-298zM144 0v1106h299v-1106h-299z" />
    <glyph glyph-name="j" unicode="j" horiz-adv-x="610" 
d="M169 1253v278h298v-278h-298zM-91 -399v275h96q163 0 163 163v1067h299v-1090q0 -182 -116 -298.5t-299 -116.5h-143z" />
    <glyph glyph-name="k" unicode="k" horiz-adv-x="1175" 
d="M1186 0h-362l-354 529v-529h-299v1505h299v-890l332 491h344l-374 -527z" />
    <glyph glyph-name="l" unicode="l" horiz-adv-x="585" 
d="M144 0v1505h299v-1505h-299z" />
    <glyph glyph-name="m" unicode="m" horiz-adv-x="1921" 
d="M1402 1132q172 0 280.5 -122t108.5 -316v-694h-299v644q0 111 -42.5 168.5t-123.5 57.5q-100 0 -156.5 -71.5t-56.5 -200.5v-598h-291v644q0 111 -41.5 168.5t-121.5 57.5q-102 0 -159 -71.5t-57 -200.5v-598h-299v1106h208l56 -137q59 75 146.5 119t183.5 44
q105 0 189 -46.5t132 -130.5q58 82 148.5 129.5t194.5 47.5z" />
    <glyph glyph-name="n" unicode="n" horiz-adv-x="1312" 
d="M773 1132q188 0 299 -125.5t111 -336.5v-670h-299v622q0 248 -193 248q-115 0 -181.5 -77.5t-66.5 -211.5v-581h-299v1106h205l58 -137q64 76 159.5 119.5t206.5 43.5z" />
    <glyph glyph-name="o" unicode="o" horiz-adv-x="1337" 
d="M669 -31q-169 0 -306 76t-214.5 210t-77.5 298q0 166 77.5 299.5t214.5 209t306 75.5q168 0 305 -75.5t215 -209.5t78 -299q0 -164 -78 -298t-215 -210t-305 -76zM669 250q129 0 212 84.5t83 218.5t-83 218.5t-212 84.5t-212 -84.5t-83 -218.5t83 -218.5t212 -84.5z" />
    <glyph glyph-name="p" unicode="p" horiz-adv-x="1396" 
d="M747 1137q164 0 296.5 -75.5t207.5 -209.5t75 -299t-75 -299.5t-207.5 -210.5t-296.5 -76q-168 0 -304 93v-459h-299v1505h197l51 -101q149 132 355 132zM722 250q130 0 215.5 86t85.5 217t-85.5 217t-215.5 86t-215.5 -86.5t-85.5 -216.5t85.5 -216.5t215.5 -86.5z" />
    <glyph glyph-name="q" unicode="q" horiz-adv-x="1396" 
d="M1056 1106h198v-1505h-299v459q-136 -93 -305 -93q-164 0 -296.5 76t-207.5 210t-75 300q0 165 74.5 299t207 209.5t297.5 75.5q206 0 355 -132zM675 250q130 0 215.5 86.5t85.5 216.5t-85.5 216.5t-215.5 86.5t-215.5 -86t-85.5 -217t85.5 -217t215.5 -86z" />
    <glyph glyph-name="r" unicode="r" horiz-adv-x="833" 
d="M709 1112h98v-282h-129q-126 0 -180.5 -59.5t-54.5 -195.5v-575h-299v1106h191l53 -136q114 142 321 142z" />
    <glyph glyph-name="s" unicode="s" horiz-adv-x="1075" 
d="M536 -31q-208 0 -335.5 108.5t-128.5 286.5h291q1 -71 51.5 -109t133.5 -38q66 0 111.5 29t45.5 82q0 27 -15.5 47t-48.5 33.5t-65 21t-84 16.5q-47 8 -79 14.5t-77.5 19.5t-76.5 28.5t-65.5 41.5t-55 57.5t-34 76.5t-13.5 99q0 157 123 255.5t322 98.5q200 0 321 -101.5
t122 -267.5h-284q-1 65 -44.5 98t-122.5 33q-69 0 -108.5 -29t-39.5 -77q0 -18 6.5 -32.5t23 -25t31 -18t44 -15t48 -11t56.5 -10.5q161 -29 232 -60q179 -80 179 -280q0 -169 -127 -270.5t-337 -101.5z" />
    <glyph glyph-name="t" unicode="t" horiz-adv-x="880" 
d="M684 266h136v-266h-212q-182 0 -287.5 105.5t-105.5 289.5v471h-200v64l437 465h57v-289h305v-240h-300v-431q0 -81 44 -125t126 -44z" />
    <glyph glyph-name="u" unicode="u" horiz-adv-x="1296" 
d="M649 -31q-234 0 -377.5 137t-143.5 361v639h299v-605q0 -118 59 -184.5t163 -66.5t162 67t58 184v605h299v-639q0 -224 -142 -361t-377 -137z" />
    <glyph glyph-name="v" unicode="v" horiz-adv-x="1196" 
d="M869 1106h310l-439 -1106h-276l-450 1106h319l270 -741z" />
    <glyph glyph-name="w" unicode="w" horiz-adv-x="1744" 
d="M1428 1106h296l-362 -1106h-240l-251 572l-245 -572h-241l-366 1106h304l218 -659l288 651h84l297 -653z" />
    <glyph glyph-name="x" unicode="x" horiz-adv-x="1116" 
d="M1114 0h-339l-219 366l-224 -366h-329l376 568l-352 538h338l192 -320l205 320h329l-357 -523z" />
    <glyph glyph-name="y" unicode="y" horiz-adv-x="1232" 
d="M908 1106h318l-482 -1091q-69 -156 -134.5 -242.5t-152.5 -129t-211 -42.5h-123v269h104q106 0 151.5 39t97.5 167l4 9l-468 1021h325l295 -680z" />
    <glyph glyph-name="z" unicode="z" horiz-adv-x="1024" 
d="M491 275h466v-275h-914v33l471 802h-426v271h869v-41z" />
    <glyph glyph-name="braceleft" unicode="{" horiz-adv-x="757" 
d="M594 -49h81v-263h-192q-111 0 -189.5 78t-78.5 190v460q0 46 -33 78.5t-80 32.5h-37v246h37q47 0 80 33t33 80v475q0 110 79 188t189 78h191v-261h-80q-38 0 -61 -22.5t-23 -59.5v-381q0 -86 -44.5 -154.5t-116.5 -97.5q72 -28 116.5 -96.5t44.5 -155.5v-366
q0 -36 23.5 -59t60.5 -23z" />
    <glyph glyph-name="bar" unicode="|" horiz-adv-x="610" 
d="M166 -389v2109h278v-2109h-278z" />
    <glyph glyph-name="braceright" unicode="}" horiz-adv-x="757" 
d="M656 773h38v-246h-38q-47 0 -80 -32.5t-33 -78.5v-460q0 -112 -78.5 -190t-189.5 -78h-191v263h80q37 0 60.5 23t23.5 59v366q0 87 44.5 155.5t116.5 96.5q-72 29 -116.5 97.5t-44.5 154.5v381q0 37 -23 59.5t-61 22.5h-80v261h191q110 0 189 -78t79 -188v-475
q0 -47 33 -80t80 -33z" />
    <glyph glyph-name="asciitilde" unicode="~" horiz-adv-x="1212" 
d="M797 461q-74 0 -130 23t-120 67q-73 50 -114 50q-40 0 -68.5 -30.5t-28.5 -76.5v-28h-211v36q0 165 81.5 262t224.5 97q72 0 125.5 -23.5t110.5 -66.5q42 -30 69 -43t57 -13q43 0 70 31t27 79v32h209v-36q0 -167 -81 -263.5t-221 -96.5z" />
    <glyph glyph-name="uni00A0" unicode="&#xa0;" horiz-adv-x="489" 
 />
    <glyph glyph-name="exclamdown" unicode="&#xa1;" horiz-adv-x="614" 
d="M465 1106v-320h-317v320h317zM458 643v-1012h-302v1012h302z" />
    <glyph glyph-name="cent" unicode="&#xa2;" horiz-adv-x="1230" 
d="M1172 414q-31 -164 -142.5 -277t-272.5 -146v-146h-235v145q-193 38 -316.5 188t-123.5 352q0 204 123 352t317 186v162h235v-163q159 -32 268.5 -142.5t142.5 -272.5h-284q-34 74 -100 115.5t-148 41.5q-113 0 -188.5 -80t-75.5 -201q0 -119 76.5 -200t187.5 -81
q83 0 147.5 44t100.5 123h288z" />
    <glyph glyph-name="sterling" unicode="&#xa3;" horiz-adv-x="1236" 
d="M884 398h265v-398h-1056v203l126 38v296h-97v235h97v218q0 184 124 297.5t323 113.5q194 0 308.5 -111t114.5 -298v-32h-267v15q0 77 -42 122.5t-114 45.5t-115.5 -45.5t-43.5 -123.5v-202h277v-235h-277v-287h377v148z" />
    <glyph glyph-name="currency" unicode="&#xa4;" horiz-adv-x="1241" 
d="M1156 250l-171 -169l-143 145q-102 -59 -225 -59q-119 0 -221 58l-137 -144l-170 171l135 142q-61 105 -61 227q0 130 68 239l-135 138l171 170l143 -143q97 50 207 50q112 0 211 -52l144 145l170 -170l-138 -139q67 -110 67 -238q0 -123 -59 -225zM408 623
q0 -85 63 -148t148 -63t145.5 62.5t60.5 148.5q0 84 -60.5 145.5t-145.5 61.5q-84 0 -147.5 -61t-63.5 -146z" />
    <glyph glyph-name="yen" unicode="&#xa5;" horiz-adv-x="1368" 
d="M830 611v-48h331v-165h-331v-96h331v-159h-331v-143h-294v143h-331v159h331v96h-331v165h331v43l-479 756h302l322 -532l328 532h302z" />
    <glyph glyph-name="brokenbar" unicode="&#xa6;" horiz-adv-x="610" 
d="M166 819v901h278v-901h-278zM166 -389v921h278v-921h-278z" />
    <glyph glyph-name="section" unicode="&#xa7;" horiz-adv-x="1101" 
d="M884 387q80 -77 80 -197q0 -157 -108.5 -243t-291.5 -86q-192 0 -309.5 99.5t-117.5 263.5h247q0 -66 53.5 -102.5t128.5 -36.5q62 0 105 27t43 74q0 19 -7 35.5t-24.5 29t-33.5 22t-46.5 19t-51 15t-59.5 15.5q-50 12 -78.5 19t-77 23t-77 32t-64 43t-55 58t-33.5 75.5
t-14 97.5q0 170 132 267q-84 74 -84 194q0 159 107.5 246t287.5 87q190 0 305.5 -101t115.5 -266h-246q0 66 -52 102.5t-125 36.5q-59 0 -101 -27t-42 -74q0 -29 16 -50.5t52 -38t66.5 -26t87.5 -23.5q51 -12 79 -19.5t76.5 -24t76.5 -32.5t63.5 -43t55 -57.5t33 -74.5
t13.5 -96q0 -159 -126 -263zM346 691q0 -24 8 -44t27.5 -36t36.5 -27t52 -23.5t55.5 -19t64.5 -19.5q12 -3 76 -24q92 51 92 132q0 26 -8.5 47.5t-29.5 39t-38.5 29.5t-55 25.5t-58 20t-66.5 20.5q-8 3 -25 8.5t-26 8.5q-105 -47 -105 -138z" />
    <glyph glyph-name="dieresis" unicode="&#xa8;" horiz-adv-x="1228" 
d="M201 1248v283h317v-283h-317zM673 1248v283h317v-283h-317z" />
    <glyph glyph-name="copyright" unicode="&#xa9;" horiz-adv-x="1695" 
d="M848 -23q-219 0 -392.5 94t-270.5 262.5t-97 381.5t97 381.5t270.5 262t392.5 93.5t392.5 -93.5t270.5 -262t97 -381.5t-97 -381.5t-270.5 -262.5t-392.5 -94zM848 152q163 0 292.5 71t202.5 199.5t73 292.5t-73 292.5t-202.5 199.5t-292.5 71t-292.5 -71t-202.5 -199.5
t-73 -292.5t73 -292.5t202.5 -199.5t292.5 -71zM848 339q-163 0 -274.5 109.5t-111.5 268.5q0 164 110.5 272t275.5 108q137 0 236.5 -80t125.5 -212h-194q-49 107 -168 107q-81 0 -134.5 -56t-53.5 -139q0 -80 53.5 -135.5t134.5 -55.5q116 0 168 114h197
q-26 -135 -126.5 -218t-238.5 -83z" />
    <glyph glyph-name="ordfeminine" unicode="&#xaa;" horiz-adv-x="937" 
d="M663 1451h148v-678h-154l-20 71q-93 -83 -221 -83q-143 0 -242.5 102.5t-99.5 249.5q0 146 99.5 248t242.5 102q131 0 224 -85zM441 939q74 0 122 49t48 125q0 75 -48.5 124.5t-121.5 49.5q-74 0 -122.5 -50t-48.5 -124q0 -75 48.5 -124.5t122.5 -49.5z" />
    <glyph glyph-name="guillemotleft" unicode="&#xab;" horiz-adv-x="1380" 
d="M386 110l-325 419v35l325 419h352l-332 -436l332 -437h-352zM954 110l-325 419v35l325 419h353l-332 -436l332 -437h-353z" />
    <glyph glyph-name="logicalnot" unicode="&#xac;" horiz-adv-x="1245" 
d="M107 876h994v-622h-294v343h-700v279z" />
    <glyph glyph-name="registered" unicode="&#xae;" horiz-adv-x="1017" 
d="M510 1454q178 0 302 -124t124 -303t-124 -303.5t-302 -124.5t-303.5 125.5t-125.5 302.5q0 178 125 302.5t304 124.5zM510 712q131 0 222 91t91 224q0 132 -91 223t-222 91q-133 0 -224.5 -91.5t-91.5 -222.5q0 -132 92.5 -223.5t223.5 -91.5zM691 1087q0 -85 -69 -124
l82 -141h-119l-70 122h-46v-122h-117v417h188q66 0 108.5 -43t42.5 -109zM469 1135v-88h60q23 0 36 12t13 32t-13 32t-36 12h-60z" />
    <glyph glyph-name="macron" unicode="&#xaf;" horiz-adv-x="1038" 
d="M199 1264v235h641v-235h-641z" />
    <glyph glyph-name="degree" unicode="&#xb0;" horiz-adv-x="765" 
d="M381 1104q-133 0 -226.5 90.5t-93.5 218.5q0 127 93.5 218t226.5 91t229 -90.5t96 -218.5t-95.5 -218.5t-229.5 -90.5zM383 1292q54 0 89.5 34.5t35.5 86.5q0 51 -35.5 86t-89.5 35t-89.5 -35t-35.5 -86q0 -52 35.5 -86.5t89.5 -34.5z" />
    <glyph glyph-name="plusminus" unicode="&#xb1;" horiz-adv-x="1224" 
d="M466 415v319h-344v275h344v318h294v-318h343v-275h-343v-319h-294zM122 237h983v-263h-983v263z" />
    <glyph glyph-name="acute" unicode="&#xb4;" horiz-adv-x="1177" 
d="M205 1228l111 312h319l-204 -312h-226z" />
    <glyph glyph-name="paragraph" unicode="&#xb6;" horiz-adv-x="1376" 
d="M1291 1434v-277h-182v-1292h-268v1292h-158v-1292h-267v688q-159 37 -257.5 153.5t-98.5 275.5q0 193 140 322.5t361 129.5h730z" />
    <glyph glyph-name="periodcentered" unicode="&#xb7;" horiz-adv-x="569" 
d="M126 559v320h317v-320h-317z" />
    <glyph glyph-name="cedilla" unicode="&#xb8;" horiz-adv-x="794" 
d="M422 -65q85 -12 135.5 -62.5t50.5 -128.5q0 -94 -75 -153t-190 -59h-135v152h123q34 0 55.5 18.5t21.5 48.5t-21.5 48.5t-55.5 18.5h-82l-16 19l76 268h162z" />
    <glyph glyph-name="ordmasculine" unicode="&#xba;" horiz-adv-x="874" 
d="M438 763q-157 0 -260.5 99.5t-103.5 250.5t103.5 250.5t260.5 99.5q155 0 258.5 -99.5t103.5 -250.5t-103.5 -250.5t-258.5 -99.5zM438 948q72 0 116.5 45.5t44.5 119.5q0 73 -44.5 118.5t-116.5 45.5q-73 0 -118 -45.5t-45 -118.5t45 -119t118 -46z" />
    <glyph glyph-name="guillemotright" unicode="&#xbb;" horiz-adv-x="1380" 
d="M426 110h-352l331 437l-331 436h352l325 -419v-35zM994 110h-352l332 437l-332 436h352l325 -419v-35z" />
    <glyph glyph-name="onequarter" unicode="&#xbc;" horiz-adv-x="1511" 
d="M969 1495h227l-827 -1556h-227zM177 624v635h-135v175h344v-810h-209zM1464 318v-168h-72v-150h-188v150h-391v35l264 625h196l-206 -492h146l38 185h141v-185h72z" />
    <glyph glyph-name="onehalf" unicode="&#xbd;" horiz-adv-x="1556" 
d="M969 1495h227l-827 -1556h-227zM177 624v635h-135v175h344v-810h-209zM1254 185h236v-183h-596v45q247 291 310.5 380t63.5 143q0 39 -21 61.5t-56 22.5q-38 0 -60.5 -24.5t-22.5 -65.5v-16h-199v15q0 125 74.5 197.5t205.5 72.5q126 0 205 -71.5t79 -186.5
q0 -77 -43.5 -155.5t-175.5 -234.5z" />
    <glyph glyph-name="threequarters" unicode="&#xbe;" horiz-adv-x="1724" 
d="M1182 1495h227l-827 -1556h-227zM644 888q0 -122 -83.5 -200.5t-213.5 -78.5q-126 0 -206 77t-83 199h187q2 -46 30 -74.5t72 -28.5q47 0 76.5 30.5t29.5 79.5t-31.5 77t-84.5 28h-124v36l137 231h-272v170h538v-36l-165 -261q88 -21 140.5 -88t52.5 -161zM1677 318v-168
h-72v-150h-188v150h-391v35l264 625h196l-206 -492h146l38 185h141v-185h72z" />
    <glyph glyph-name="questiondown" unicode="&#xbf;" horiz-adv-x="1085" 
d="M729 1106v-320h-317v320h317zM720 660v-45q0 -62 -13.5 -114t-31 -86t-50.5 -68.5t-54.5 -51.5t-60.5 -45q-38 -27 -56.5 -42.5t-43 -41.5t-34.5 -55.5t-10 -66.5q0 -82 55 -133t133 -51q79 0 138.5 51t60.5 139h280q-1 -111 -42 -200.5t-109.5 -145t-153 -85
t-176.5 -29.5q-93 0 -178.5 30.5t-152.5 87t-107 144t-40 192.5q0 47 7.5 87.5t24 74t31.5 57.5t43 50.5t44 40t48 38.5q38 29 57.5 46t44 45.5t35 60.5t10.5 71v45h301z" />
    <glyph glyph-name="Agrave" unicode="&#xc0;" horiz-adv-x="1470" 
d="M618 1572l-205 290h318l114 -290h-227zM1116 0l-100 272h-571l-98 -272h-329l562 1434h292l580 -1434h-336zM729 1055l-187 -513h376z" />
    <glyph glyph-name="Aacute" unicode="&#xc1;" horiz-adv-x="1470" 
d="M1035 1862l-205 -290h-226l113 290h318zM1116 0l-100 272h-571l-98 -272h-329l562 1434h292l580 -1434h-336zM729 1055l-187 -513h376z" />
    <glyph glyph-name="Acircumflex" unicode="&#xc2;" horiz-adv-x="1470" 
d="M725 1710l-148 -138h-256l235 290h339l236 -290h-256zM1116 0l-100 272h-571l-98 -272h-329l562 1434h292l580 -1434h-336zM729 1055l-187 -513h376z" />
    <glyph glyph-name="Atilde" unicode="&#xc3;" horiz-adv-x="1470" 
d="M869 1561q-39 0 -80 13.5t-57 22.5t-57 34q-65 40 -90 40q-31 0 -52.5 -23.5t-21.5 -60.5v-16h-165v22q0 129 63 204t174 75q89 0 179 -66q63 -46 103 -46q33 0 53.5 23t20.5 62v18h165v-22q0 -129 -63 -204.5t-172 -75.5zM1116 0l-100 272h-571l-98 -272h-329l562 1434
h292l580 -1434h-336zM729 1055l-187 -513h376z" />
    <glyph glyph-name="Adieresis" unicode="&#xc4;" horiz-adv-x="1470" 
d="M329 1574v276h317v-276h-317zM808 1574v276h317v-276h-317zM1116 0l-100 272h-571l-98 -272h-329l562 1434h292l580 -1434h-336zM729 1055l-187 -513h376z" />
    <glyph glyph-name="Aring" unicode="&#xc5;" horiz-adv-x="1470" 
d="M726 1525q-124 0 -200 72t-76 189q0 118 76 190t200 72q123 0 198.5 -72t75.5 -190q0 -117 -76 -189t-198 -72zM726 1671q51 0 85 32.5t34 82.5t-34 82.5t-85 32.5q-52 0 -86.5 -32.5t-34.5 -82.5t34.5 -82.5t86.5 -32.5zM1116 0l-100 272h-571l-98 -272h-329l562 1434
h292l580 -1434h-336zM729 1055l-187 -513h376z" />
    <glyph glyph-name="AE" unicode="&#xc6;" horiz-adv-x="1900" 
d="M1240 289h563v-289h-878v268h-449l-155 -268h-358l838 1434h979v-285h-540v-285h487v-281h-487v-294zM633 538h292v504z" />
    <glyph glyph-name="Ccedilla" unicode="&#xc7;" horiz-adv-x="1579" 
d="M1520 561q-45 -245 -213.5 -404.5t-406.5 -183.5l-8 -33q81 -19 127 -68.5t46 -122.5q0 -97 -78.5 -157t-200.5 -60h-147v150h145q35 0 57.5 19t22.5 50t-22.5 50t-57.5 19h-86l-12 16l32 140q-183 24 -328 125.5t-227 262t-82 351.5q0 158 57 297t155 238t235.5 156.5
t292.5 57.5q261 0 452.5 -158t241.5 -413h-311q-45 128 -146.5 201.5t-236.5 73.5q-182 0 -304 -129.5t-122 -323.5q0 -193 122 -321.5t304 -128.5q141 0 244 79.5t142 216.5h313z" />
    <glyph glyph-name="Egrave" unicode="&#xc8;" horiz-adv-x="1144" 
d="M487 1572l-206 290h318l114 -290h-226zM474 289h573v-289h-883v1434h861v-287h-551v-283h497v-281h-497v-294z" />
    <glyph glyph-name="Eacute" unicode="&#xc9;" horiz-adv-x="1144" 
d="M904 1862l-205 -290h-227l114 290h318zM474 289h573v-289h-883v1434h861v-287h-551v-283h497v-281h-497v-294z" />
    <glyph glyph-name="Ecircumflex" unicode="&#xca;" horiz-adv-x="1144" 
d="M593 1710l-147 -138h-257l235 290h339l237 -290h-257zM474 289h573v-289h-883v1434h861v-287h-551v-283h497v-281h-497v-294z" />
    <glyph glyph-name="Edieresis" unicode="&#xcb;" horiz-adv-x="1144" 
d="M198 1574v276h316v-276h-316zM676 1574v276h317v-276h-317zM474 289h573v-289h-883v1434h861v-287h-551v-283h498v-281h-498v-294z" />
    <glyph glyph-name="Igrave" unicode="&#xcc;" horiz-adv-x="638" 
d="M430 1572h-230l-162 290h312zM164 0v1434h310v-1434h-310z" />
    <glyph glyph-name="Iacute" unicode="&#xcd;" horiz-adv-x="638" 
d="M202 1572l80 290h303l-162 -290h-221zM164 0v1434h310v-1434h-310z" />
    <glyph glyph-name="Icircumflex" unicode="&#xce;" horiz-adv-x="638" 
d="M318 1708l-120 -136h-243l212 290h302l214 -290h-245zM164 0v1434h310v-1434h-310z" />
    <glyph glyph-name="Idieresis" unicode="&#xcf;" horiz-adv-x="638" 
d="M-21 1574v276h285v-276h-285zM375 1574v276h284v-276h-284zM164 0v1434h310v-1434h-310z" />
    <glyph glyph-name="Eth" unicode="&#xd0;" horiz-adv-x="1595" 
d="M786 1434q156 0 291.5 -54t231 -148.5t150 -227.5t54.5 -286q0 -154 -55 -287.5t-150.5 -228t-231 -148.5t-290.5 -54h-543v585h-196v267h196v582h543zM778 288q184 0 300.5 120.5t116.5 309.5t-116.5 308.5t-300.5 119.5h-224v-294h292v-267h-292v-297h224z" />
    <glyph glyph-name="Ntilde" unicode="&#xd1;" horiz-adv-x="1540" 
d="M556 1587v-16h-165v22q0 129 63 204t174 75q89 0 179 -66q63 -46 104 -46q33 0 53 23t20 62v18h166v-22q0 -129 -63.5 -204.5t-172.5 -75.5q-14 0 -27 1t-26 4.5t-22.5 5.5t-23.5 8.5t-20 9t-21 10.5t-18 9.5t-18.5 11t-16.5 10.5q-65 40 -91 40q-31 0 -52.5 -23.5
t-21.5 -60.5zM1073 1434h304v-1434h-259l-650 896v-896h-304v1434h280l629 -875v875z" />
    <glyph glyph-name="Ograve" unicode="&#xd2;" horiz-adv-x="1685" 
d="M737 1572l-206 290h318l114 -290h-226zM845 -31q-162 0 -304 57.5t-243 156.5t-159.5 238t-58.5 296t58.5 296t159.5 238t243 156.5t304 57.5q161 0 302.5 -57t242 -156.5t158.5 -238t58 -296.5t-58 -296.5t-158.5 -238t-242 -156.5t-302.5 -57zM845 261q191 0 319 130.5
t128 325.5t-128 325t-319 130t-321 -131t-130 -324t130 -324.5t321 -131.5z" />
    <glyph glyph-name="Oacute" unicode="&#xd3;" horiz-adv-x="1685" 
d="M722 1572l114 290h318l-206 -290h-226zM845 -31q-162 0 -304 57.5t-243.5 156.5t-160 238t-58.5 296t58.5 296t160 238t243.5 156.5t304 57.5q161 0 302.5 -57t242 -156.5t158.5 -238t58 -296.5t-58 -296.5t-158.5 -238t-242 -156.5t-302.5 -57zM845 261q191 0 319 130.5
t128 325.5t-128 325t-319 130t-321 -131t-130 -324t130 -324.5t321 -131.5z" />
    <glyph glyph-name="Ocircumflex" unicode="&#xd4;" horiz-adv-x="1685" 
d="M1250 1572h-257l-150 138l-148 -138h-256l235 290h339zM844 -31q-162 0 -304 57.5t-243 156.5t-159.5 238t-58.5 296t58.5 296t159.5 238t243 156.5t304 57.5q215 0 389.5 -97.5t273.5 -268.5t99 -382t-99 -382t-273.5 -268.5t-389.5 -97.5zM844 261q191 0 319.5 130.5
t128.5 325.5t-128.5 325t-319.5 130t-320.5 -131t-129.5 -324q0 -194 129.5 -325t320.5 -131z" />
    <glyph glyph-name="Otilde" unicode="&#xd5;" horiz-adv-x="1685" 
d="M987 1562q-39 0 -79.5 13.5t-57 22.5t-56.5 33q-65 40 -91 40q-31 0 -52.5 -23.5t-21.5 -60.5v-16h-165v22q0 129 63 204t174 75q89 0 179 -66q63 -46 104 -46q33 0 53 23t20 62v18h166v-22q0 -129 -63.5 -204t-172.5 -75zM845 -31q-162 0 -304 57.5t-243 156.5
t-159.5 238t-58.5 296t58.5 296t159.5 238t243 156.5t304 57.5q161 0 302.5 -57t242 -156.5t158.5 -238t58 -296.5t-58 -296.5t-158.5 -238t-242 -156.5t-302.5 -57zM845 261q191 0 319 130.5t128 325.5t-128 325t-319 130t-321 -131t-130 -324t130 -324.5t321 -131.5z" />
    <glyph glyph-name="Odieresis" unicode="&#xd6;" horiz-adv-x="1685" 
d="M447 1574v276h317v-276h-317zM926 1574v276h317v-276h-317zM845 -31q-162 0 -304 57.5t-243 156.5t-159.5 238t-58.5 296t58.5 296t159.5 238t243 156.5t304 57.5q161 0 302.5 -57t242 -156.5t158.5 -238t58 -296.5t-58 -296.5t-158.5 -238t-242 -156.5t-302.5 -57z
M845 261q191 0 319 130.5t128 325.5t-128 325t-319 130t-321 -131t-130 -324t130 -324.5t321 -131.5z" />
    <glyph glyph-name="multiply" unicode="&#xd7;" horiz-adv-x="1122" 
d="M1027 951l-270 -272l270 -275l-199 -193l-267 270l-268 -270l-199 193l270 275l-270 272l203 195l264 -268l263 268z" />
    <glyph glyph-name="Oslash" unicode="&#xd8;" horiz-adv-x="1714" 
d="M1358 1282q129 -101 201.5 -250.5t72.5 -326.5q0 -156 -58 -292.5t-158.5 -233.5t-242 -153t-302.5 -56q-145 0 -272 44l-85 -141h-337l175 278q-129 101 -201 248.5t-72 321.5q0 157 58.5 295t159.5 236t243.5 155t303.5 57q139 0 268 -45l83 142h333zM844 1171
q-191 0 -319 -128.5t-128 -319.5q0 -186 127 -313l443 746q-59 15 -123 15zM863 261q193 0 322 126.5t129 318.5q0 187 -125 315l-442 -745q53 -15 116 -15z" />
    <glyph glyph-name="Ugrave" unicode="&#xd9;" horiz-adv-x="1482" 
d="M634 1572l-205 290h318l113 -290h-226zM742 -31q-256 0 -424.5 160.5t-168.5 410.5v894h311v-880q0 -133 78.5 -213t203.5 -80t203 80t78 213v880h311v-894q0 -250 -168 -410.5t-424 -160.5z" />
    <glyph glyph-name="Uacute" unicode="&#xda;" horiz-adv-x="1482" 
d="M619 1572l114 290h318l-205 -290h-227zM742 -31q-256 0 -424.5 160.5t-168.5 410.5v894h311v-880q0 -133 78.5 -213t203.5 -80t203 80t78 213v880h311v-894q0 -250 -168 -410.5t-424 -160.5z" />
    <glyph glyph-name="Ucircumflex" unicode="&#xdb;" horiz-adv-x="1482" 
d="M1147 1572h-256l-150 138l-148 -138h-257l235 290h339zM742 -31q-256 0 -424.5 160.5t-168.5 410.5v894h311v-880q0 -133 78.5 -213t203.5 -80t203 80t78 213v880h311v-894q0 -250 -168 -410.5t-424 -160.5z" />
    <glyph glyph-name="Udieresis" unicode="&#xdc;" horiz-adv-x="1482" 
d="M345 1574v276h317v-276h-317zM823 1574v276h317v-276h-317zM742 -31q-256 0 -424.5 160.5t-168.5 410.5v894h311v-880q0 -133 78.5 -213t203.5 -80t203 80t78 213v880h311v-894q0 -250 -168 -410.5t-424 -160.5z" />
    <glyph glyph-name="Yacute" unicode="&#xdd;" horiz-adv-x="1390" 
d="M1006 1862l-206 -290h-226l114 290h318zM1358 1434l-505 -855v-579h-318v581l-500 853h330l331 -574l332 574h330z" />
    <glyph glyph-name="Thorn" unicode="&#xde;" horiz-adv-x="1294" 
d="M716 1212q218 0 362 -141t144 -354q0 -214 -144 -354.5t-362 -140.5h-242v-222h-310v1434h310v-222h242zM702 510q91 0 148 57.5t57 149.5t-57 149.5t-148 57.5h-228v-414h228z" />
    <glyph glyph-name="germandbls" unicode="&#xdf;" horiz-adv-x="1269" 
d="M983 796q214 -109 214 -352q0 -202 -142.5 -323t-379.5 -121h-114v271h111q108 0 170 51t62 140t-63 139.5t-176 50.5h-88v255h72q97 0 157 51.5t60 133.5q0 80 -57 131.5t-148 51.5q-102 0 -160 -71.5t-58 -189.5v-1014h-299v986q0 254 135.5 397.5t372.5 143.5
q212 0 348.5 -118.5t136.5 -304.5q0 -194 -154 -308z" />
    <glyph glyph-name="agrave" unicode="&#xe0;" horiz-adv-x="1413" 
d="M830 1228h-227l-203 312h318zM1046 1108h224v-1106h-235l-26 99q-151 -132 -358 -132q-164 0 -297 76t-208 210.5t-75 299.5q0 164 75 297.5t208 209t297 75.5q211 0 363 -135zM675 252q130 0 215.5 86t85.5 217t-85.5 217t-215.5 86t-215.5 -86.5t-85.5 -216.5
t85.5 -216.5t215.5 -86.5z" />
    <glyph glyph-name="aacute" unicode="&#xe1;" horiz-adv-x="1413" 
d="M991 1540l-203 -312h-227l112 312h318zM1046 1108h224v-1106h-235l-26 99q-151 -132 -358 -132q-164 0 -297 76t-208 210.5t-75 299.5q0 164 75 297.5t208 209t297 75.5q211 0 363 -135zM675 252q130 0 215.5 86t85.5 217t-85.5 217t-215.5 86t-215.5 -86.5t-85.5 -216.5
t85.5 -216.5t215.5 -86.5z" />
    <glyph glyph-name="acircumflex" unicode="&#xe2;" horiz-adv-x="1413" 
d="M700 1377l-148 -149h-256l235 312h339l237 -312h-257zM1046 1108h223v-1106h-234l-26 99q-151 -132 -358 -132q-164 0 -297 76t-208 210.5t-75 299.5q0 164 75 297.5t208 209t297 75.5q211 0 363 -135zM675 252q130 0 215.5 86t85.5 217t-85.5 217t-215.5 86
t-215.5 -86.5t-85.5 -216.5t85.5 -216.5t215.5 -86.5z" />
    <glyph glyph-name="atilde" unicode="&#xe3;" horiz-adv-x="1413" 
d="M484 1253v-16h-165v22q0 129 62.5 203.5t173.5 74.5q55 0 95.5 -17.5t83.5 -49.5q59 -45 102 -45q32 0 52.5 23.5t20.5 61.5v18h166v-22q0 -129 -63 -204t-172 -75q-38 0 -78.5 13.5t-57 22.5t-56.5 33q-3 2 -12.5 7.5t-13 7.5t-11 6.5t-11.5 6.5t-11 5t-11.5 4t-10 2
t-10.5 1q-30 0 -51.5 -23.5t-21.5 -59.5zM1046 1108h223v-1106h-234l-26 99q-151 -132 -358 -132q-164 0 -297 76t-208 210.5t-75 299.5q0 164 75 297.5t208 209t297 75.5q211 0 363 -135zM675 252q130 0 215.5 86t85.5 217t-85.5 217t-215.5 86t-215.5 -86.5t-85.5 -216.5
t85.5 -216.5t215.5 -86.5z" />
    <glyph glyph-name="adieresis" unicode="&#xe4;" horiz-adv-x="1413" 
d="M619 1531v-283h-317v283h317zM1091 1531v-283h-317v283h317zM1046 1108h224v-1106h-235l-26 99q-151 -132 -358 -132q-164 0 -297 76t-208 210.5t-75 299.5q0 164 75 297.5t208 209t297 75.5q211 0 363 -135zM675 252q130 0 215.5 86t85.5 217t-85.5 217t-215.5 86
t-215.5 -86.5t-85.5 -216.5t85.5 -216.5t215.5 -86.5z" />
    <glyph glyph-name="aring" unicode="&#xe5;" horiz-adv-x="1413" 
d="M698 1198q-116 0 -188 68.5t-72 178.5q0 111 72 178.5t188 67.5t187.5 -67.5t71.5 -178.5q0 -110 -71.5 -178.5t-187.5 -68.5zM698 1553q-49 0 -81 -30.5t-32 -77.5t32 -78t81 -31t80.5 31t31.5 78t-31.5 77.5t-80.5 30.5zM1046 1108h224v-1106h-235l-26 99
q-151 -132 -358 -132q-164 0 -297 76t-208 210.5t-75 299.5q0 164 75 297.5t208 209t297 75.5q211 0 363 -135zM675 252q130 0 215.5 86t85.5 217t-85.5 217t-215.5 86t-215.5 -86.5t-85.5 -216.5t85.5 -216.5t215.5 -86.5z" />
    <glyph glyph-name="ae" unicode="&#xe6;" horiz-adv-x="2181" 
d="M2112 553q0 -44 -6 -86h-843q20 -108 92.5 -166.5t184.5 -58.5q78 0 139 32t95 89h315q-60 -178 -205 -285.5t-333 -107.5q-207 0 -352 137l-10 -108h-186l-11 112q-148 -142 -355 -142q-119 0 -224 45.5t-180 124t-118.5 186.5t-43.5 228q0 165 74.5 298.5t204 208.5
t287.5 75q213 0 359 -144l14 116h173l13 -111q146 141 355 141q159 0 288 -77t201 -210.5t72 -296.5zM1540 882q-102 0 -172 -54.5t-97 -152.5h542q-31 100 -101.5 153.5t-171.5 53.5zM671 252q127 0 211 86t84 215q0 131 -84 217t-211 86t-211 -86t-84 -217q0 -129 84 -215
t211 -86z" />
    <glyph glyph-name="ccedilla" unicode="&#xe7;" horiz-adv-x="1280" 
d="M1226 435q-37 -197 -179.5 -324t-343.5 -141l-10 -35q85 -12 135.5 -62.5t50.5 -128.5q0 -94 -74.5 -153t-189.5 -59h-136v152h123q35 0 56.5 18.5t21.5 48.5t-21.5 48.5t-56.5 18.5h-82l-15 19l40 142q-208 39 -341 199t-133 378q0 122 45 230t123 185t187.5 121.5
t233.5 44.5q214 0 367.5 -124.5t194.5 -329.5h-297q-36 82 -107 127.5t-160 45.5q-121 0 -202.5 -86.5t-81.5 -214.5t82 -216.5t202 -88.5q91 0 160 48t107 137h301z" />
    <glyph glyph-name="egrave" unicode="&#xe8;" horiz-adv-x="1286" 
d="M776 1228h-226l-204 312h318zM1217 557q0 -45 -6 -88h-837q19 -113 90.5 -173.5t180.5 -60.5q77 0 138.5 34t95.5 94h314q-60 -181 -208 -287.5t-340 -106.5q-161 0 -292.5 76.5t-206.5 210.5t-75 297q0 164 74.5 298t206 210t293.5 76q166 0 298 -78.5t203 -210.5
t71 -291zM645 882q-99 0 -168 -55t-95 -154h536q-31 101 -101.5 155t-171.5 54z" />
    <glyph glyph-name="eacute" unicode="&#xe9;" horiz-adv-x="1286" 
d="M937 1540l-203 -312h-226l111 312h318zM1217 557q0 -45 -6 -88h-837q19 -113 90.5 -173.5t180.5 -60.5q77 0 138.5 34t95.5 94h314q-60 -181 -208 -287.5t-340 -106.5q-161 0 -292.5 76.5t-206.5 210.5t-75 297q0 164 74.5 298t206 210t293.5 76q166 0 298 -78.5
t203 -210.5t71 -291zM645 882q-99 0 -168 -55t-95 -154h536q-31 101 -101.5 155t-171.5 54z" />
    <glyph glyph-name="ecircumflex" unicode="&#xea;" horiz-adv-x="1286" 
d="M647 1377l-149 -149h-256l235 312h339l237 -312h-256zM1217 557q0 -45 -6 -88h-837q19 -113 90.5 -173.5t180.5 -60.5q77 0 138.5 34t95.5 94h314q-60 -181 -208 -287.5t-340 -106.5q-161 0 -292.5 76.5t-206.5 210.5t-75 297q0 164 74.5 298t206 210t293.5 76
q166 0 298 -78.5t203 -210.5t71 -291zM645 882q-99 0 -168 -55t-95 -154h536q-31 101 -101.5 155t-171.5 54z" />
    <glyph glyph-name="edieresis" unicode="&#xeb;" horiz-adv-x="1286" 
d="M565 1531v-283h-317v283h317zM1037 1531v-283h-317v283h317zM1217 557q0 -45 -6 -88h-837q19 -113 90.5 -173.5t180.5 -60.5q77 0 138.5 34t95.5 94h314q-60 -181 -208 -287.5t-340 -106.5q-161 0 -292.5 76.5t-206.5 210.5t-75 297q0 164 74.5 298t206 210t293.5 76
q166 0 298 -78.5t203 -210.5t71 -291zM645 882q-99 0 -168 -55t-95 -154h536q-31 101 -101.5 155t-171.5 54z" />
    <glyph glyph-name="igrave" unicode="&#xec;" horiz-adv-x="585" 
d="M402 1228h-230l-163 312h313zM144 0v1106h299v-1106h-299z" />
    <glyph glyph-name="iacute" unicode="&#xed;" horiz-adv-x="585" 
d="M164 1228l80 312h312l-162 -312h-230zM144 0v1106h299v-1106h-299z" />
    <glyph glyph-name="icircumflex" unicode="&#xee;" horiz-adv-x="585" 
d="M292 1375l-120 -147h-243l212 312h302l214 -312h-245zM144 0v1106h299v-1106h-299z" />
    <glyph glyph-name="idieresis" unicode="&#xef;" horiz-adv-x="585" 
d="M-22 1248v283h269v-283h-269zM382 1248v283h269v-283h-269zM144 0v1106h299v-1106h-299z" />
    <glyph glyph-name="eth" unicode="&#xf0;" horiz-adv-x="1320" 
d="M849 1460q186 -119 281 -328t95 -492q0 -312 -155.5 -491.5t-427.5 -179.5q-258 0 -414.5 153t-156.5 405q0 236 149.5 385t385.5 149q179 0 302 -110q-16 105 -81 186t-168 133l-185 -185l-117 108l135 135q-95 21 -199 21v253q228 0 406 -67l142 141l115 -109zM642 244
q122 0 202.5 81t80.5 204t-80.5 204t-202.5 81t-202.5 -81t-80.5 -204t80.5 -204t202.5 -81z" />
    <glyph glyph-name="ntilde" unicode="&#xf1;" horiz-adv-x="1312" 
d="M465 1253v-16h-165v22q0 129 62.5 203.5t173.5 74.5q55 0 95.5 -17.5t83.5 -49.5q59 -45 103 -45q32 0 52.5 23.5t20.5 61.5v18h165v-23q0 -129 -63 -203.5t-172 -74.5q-38 0 -78.5 13.5t-57 22.5t-56.5 33q-65 39 -91 39q-30 0 -51.5 -23t-21.5 -59zM773 1132
q188 0 299 -125.5t111 -336.5v-670h-299v622q0 248 -193 248q-115 0 -181.5 -77.5t-66.5 -211.5v-581h-299v1106h205l58 -137q64 76 159.5 119.5t206.5 43.5z" />
    <glyph glyph-name="ograve" unicode="&#xf2;" horiz-adv-x="1337" 
d="M799 1228h-226l-204 312h318zM669 -31q-169 0 -306 76t-214.5 210t-77.5 298q0 166 77.5 299.5t214.5 209t306 75.5q168 0 305 -75.5t215 -209.5t78 -299q0 -164 -78 -298t-215 -210t-305 -76zM669 250q129 0 211.5 84.5t82.5 218.5t-82.5 218.5t-211.5 84.5t-212 -84.5
t-83 -218.5t83 -218.5t212 -84.5z" />
    <glyph glyph-name="oacute" unicode="&#xf3;" horiz-adv-x="1337" 
d="M531 1228l111 312h318l-203 -312h-226zM669 -31q-169 0 -306 76t-214.5 210t-77.5 298q0 166 77.5 299.5t214.5 209t306 75.5q168 0 305 -75.5t215 -209.5t78 -299q0 -164 -78 -298t-215 -210t-305 -76zM669 250q129 0 211.5 84.5t82.5 218.5t-82.5 218.5t-211.5 84.5
t-212 -84.5t-83 -218.5t83 -218.5t212 -84.5z" />
    <glyph glyph-name="ocircumflex" unicode="&#xf4;" horiz-adv-x="1337" 
d="M1076 1228h-256l-150 149l-148 -149h-257l235 312h339zM669 -31q-169 0 -306 76t-214.5 210t-77.5 298q0 166 77.5 299.5t214.5 209t306 75.5q168 0 305 -75.5t215 -209.5t78 -299q0 -164 -78 -298t-215 -210t-305 -76zM669 250q129 0 211.5 84.5t82.5 218.5t-82.5 218.5
t-211.5 84.5t-212 -84.5t-83 -218.5t83 -218.5t212 -84.5z" />
    <glyph glyph-name="otilde" unicode="&#xf5;" horiz-adv-x="1337" 
d="M810 1227q-38 0 -78.5 13.5t-57 22.5t-56.5 33q-2 1 -10 6t-10.5 6.5t-9.5 5.5t-9.5 5.5t-8.5 4.5t-9.5 4t-8.5 3t-9 3t-8.5 1.5t-8.5 0.5q-30 0 -51.5 -23.5t-21.5 -59.5v-16h-165v22q0 129 62.5 203.5t173.5 74.5q89 0 180 -67q59 -45 102 -45q32 0 52.5 23.5
t20.5 61.5v18h165v-23q0 -129 -62.5 -203.5t-171.5 -74.5zM669 -31q-169 0 -306 76t-214.5 210t-77.5 298q0 166 77.5 299.5t214.5 209t306 75.5q168 0 305 -75.5t215 -209.5t78 -299q0 -164 -78 -298t-215 -210t-305 -76zM669 250q129 0 211.5 84.5t82.5 218.5t-82.5 218.5
t-211.5 84.5t-212 -84.5t-83 -218.5t83 -218.5t212 -84.5z" />
    <glyph glyph-name="odieresis" unicode="&#xf6;" horiz-adv-x="1337" 
d="M272 1248v283h317v-283h-317zM744 1248v283h317v-283h-317zM669 -31q-169 0 -306 76t-214.5 210t-77.5 298q0 166 77.5 299.5t214.5 209t306 75.5q168 0 305 -75.5t215 -209.5t78 -299q0 -164 -78 -298t-215 -210t-305 -76zM669 250q129 0 212 84.5t83 218.5t-83 218.5
t-212 84.5t-212 -84.5t-83 -218.5t83 -218.5t212 -84.5z" />
    <glyph glyph-name="divide" unicode="&#xf7;" horiz-adv-x="1148" 
d="M574 927q-65 0 -109 44t-44 109q0 63 44.5 107.5t108.5 44.5t108.5 -44.5t44.5 -107.5q0 -65 -44 -109t-109 -44zM82 546v261h984v-261h-984zM574 122q-64 0 -108.5 44t-44.5 109q0 64 44.5 108t108.5 44t108.5 -44t44.5 -108q0 -65 -44.5 -109t-108.5 -44z" />
    <glyph glyph-name="oslash" unicode="&#xf8;" horiz-adv-x="1368" 
d="M1064 1008q109 -79 170.5 -199t61.5 -263q0 -162 -76.5 -294t-211.5 -207t-301 -75q-106 0 -196 31l-71 -126h-273l130 230q-106 78 -165.5 196t-59.5 259q0 162 77.5 294t213 207t302.5 75q94 0 180 -26l65 121h273zM665 871q-136 0 -221 -87t-85 -224q0 -131 81 -217
l287 522q-30 6 -62 6zM707 236q134 0 218.5 86.5t84.5 223.5q0 136 -85 221l-289 -524q31 -7 71 -7z" />
    <glyph glyph-name="ugrave" unicode="&#xf9;" horiz-adv-x="1296" 
d="M781 1228h-226l-204 312h318zM649 -31q-234 0 -377.5 137t-143.5 361v639h299v-605q0 -118 59 -184.5t163 -66.5t162 67t58 184v605h299v-639q0 -224 -142 -361t-377 -137z" />
    <glyph glyph-name="uacute" unicode="&#xfa;" horiz-adv-x="1296" 
d="M513 1228l111 312h318l-203 -312h-226zM649 -31q-234 0 -377.5 137t-143.5 361v639h299v-605q0 -118 59 -184.5t163 -66.5t162 67t58 184v605h299v-639q0 -224 -142 -361t-377 -137z" />
    <glyph glyph-name="ucircumflex" unicode="&#xfb;" horiz-adv-x="1296" 
d="M1058 1228h-256l-150 149l-149 -149h-256l235 312h339zM649 -31q-234 0 -377.5 137t-143.5 361v639h299v-605q0 -118 59 -184.5t163 -66.5t162 67t58 184v605h299v-639q0 -224 -142 -361t-377 -137z" />
    <glyph glyph-name="udieresis" unicode="&#xfc;" horiz-adv-x="1296" 
d="M253 1248v283h317v-283h-317zM725 1248v283h317v-283h-317zM649 -31q-234 0 -377.5 137t-143.5 361v639h300v-605q0 -118 58.5 -184.5t162.5 -66.5t162 67t58 184v605h299v-639q0 -224 -142 -361t-377 -137z" />
    <glyph glyph-name="yacute" unicode="&#xfd;" horiz-adv-x="1232" 
d="M916 1540l-203 -312h-226l111 312h318zM908 1106h318l-482 -1091q-69 -156 -134.5 -242.5t-152.5 -129t-211 -42.5h-123v269h104q106 0 151.5 39t97.5 167l4 9l-468 1021h325l295 -680z" />
    <glyph glyph-name="thorn" unicode="&#xfe;" horiz-adv-x="1402" 
d="M752 1137q164 0 296.5 -75.5t207.5 -209.5t75 -299t-75 -299.5t-207.5 -210.5t-296.5 -76q-173 0 -309 97v-463h-299v1895h299v-455q137 96 309 96zM727 250q130 0 215.5 86t85.5 217q0 130 -85.5 216.5t-215.5 86.5t-215.5 -86.5t-85.5 -216.5t85.5 -216.5t215.5 -86.5z
" />
    <glyph glyph-name="ydieresis" unicode="&#xff;" horiz-adv-x="1232" 
d="M228 1248v283h316v-283h-316zM699 1248v283h317v-283h-317zM908 1106h318l-482 -1091q-102 -231 -208.5 -322.5t-288.5 -91.5h-124v269h104q106 0 151.5 39t97.5 167l4 9l-468 1021h325l295 -680z" />
    <glyph glyph-name="Amacron" unicode="&#x100;" horiz-adv-x="1470" 
d="M405 1592v252h641v-252h-641zM1116 0l-100 272h-571l-98 -272h-329l562 1434h292l580 -1434h-336zM729 1055l-187 -513h376z" />
    <glyph glyph-name="amacron" unicode="&#x101;" horiz-adv-x="1413" 
d="M1017 1499v-235h-641v235h641zM1046 1108h224v-1106h-235l-26 99q-151 -132 -358 -132q-164 0 -297 76t-208 210.5t-75 299.5q0 164 75 297.5t208 209t297 75.5q211 0 363 -135zM675 252q130 0 215.5 86t85.5 217t-85.5 217t-215.5 86t-215.5 -86.5t-85.5 -216.5
t85.5 -216.5t215.5 -86.5z" />
    <glyph glyph-name="Abreve" unicode="&#x102;" horiz-adv-x="1470" 
d="M726 1553q-156 0 -251.5 85t-95.5 224h230v-9q0 -49 31 -77.5t84 -28.5t84 28.5t31 77.5v9h235q0 -139 -95.5 -224t-252.5 -85zM1116 0l-100 272h-571l-98 -272h-329l562 1434h292l580 -1434h-336zM729 1055l-187 -513h376z" />
    <glyph glyph-name="abreve" unicode="&#x103;" horiz-adv-x="1413" 
d="M698 1210q-164 0 -264 90.5t-100 239.5h230v-10q0 -59 36.5 -92.5t97.5 -33.5q60 0 94 33.5t34 92.5v10h235q0 -149 -99.5 -239.5t-263.5 -90.5zM1046 1108h224v-1106h-235l-26 99q-151 -132 -358 -132q-164 0 -297 76t-208 210.5t-75 299.5q0 164 75 297.5t208 209
t297 75.5q211 0 363 -135zM675 252q130 0 216 86t86 217t-86 217t-216 86t-215.5 -86.5t-85.5 -216.5t85.5 -216.5t215.5 -86.5z" />
    <glyph glyph-name="Aogonek" unicode="&#x104;" horiz-adv-x="1466" 
d="M1144 -180q0 -44 34.5 -69t95.5 -25q64 0 112 24v-163q-88 -62 -200 -62q-118 0 -193 62.5t-75 160.5q0 82 49 155.5t136 125.5l-89 243h-570l-99 -272h-329l562 1434h293l576 -1424l8 -10q-155 -6 -233 -56t-78 -124zM727 1055l-187 -513h376z" />
    <glyph glyph-name="aogonek" unicode="&#x105;" horiz-adv-x="1413" 
d="M1173 -274q60 0 120 24v-163q-91 -61 -207 -61q-110 0 -185.5 59t-75.5 163q0 87 51.5 164.5t146.5 136.5l-14 52q-151 -132 -358 -132q-164 0 -297 76t-208 210.5t-75 299.5q0 164 75 297.5t208 209t297 75.5q211 0 363 -135l32 106h224v-1106v-2q-105 -25 -162.5 -70.5
t-57.5 -104.5q0 -50 34 -74.5t89 -24.5zM675 252q130 0 216 86t86 217t-86 217t-216 86t-215.5 -86.5t-85.5 -216.5t85.5 -216.5t215.5 -86.5z" />
    <glyph glyph-name="Cacute" unicode="&#x106;" horiz-adv-x="1579" 
d="M692 1572l114 290h318l-206 -290h-226zM821 -31q-155 0 -292.5 57.5t-235.5 156.5t-155 237.5t-57 294.5q0 158 57 297t155 238t235.5 156.5t292.5 57.5q261 0 452.5 -158t241.5 -413h-311q-45 128 -146.5 201.5t-236.5 73.5q-182 0 -304 -129.5t-122 -323.5
q0 -193 122 -321.5t304 -128.5q141 0 244 79.5t142 216.5h313q-49 -266 -241 -429t-458 -163z" />
    <glyph glyph-name="cacute" unicode="&#x107;" horiz-adv-x="1280" 
d="M522 1228l111 312h318l-203 -312h-226zM658 -31q-123 0 -232 45.5t-187 123.5t-123 187t-45 231t45 230t123 185t187.5 121.5t233.5 44.5q214 0 367.5 -124.5t194.5 -329.5h-297q-36 82 -107 127.5t-160 45.5q-121 0 -202.5 -86.5t-81.5 -214.5t82 -216.5t202 -88.5
q91 0 160 48t107 137h301q-39 -209 -195.5 -337.5t-372.5 -128.5z" />
    <glyph glyph-name="Ccircumflex" unicode="&#x108;" horiz-adv-x="1579" 
d="M1220 1572h-257l-150 138l-148 -138h-256l235 290h339zM821 -31q-155 0 -292.5 57.5t-235.5 156.5t-155 237.5t-57 294.5q0 158 57 297t155 238t235.5 156.5t292.5 57.5q261 0 452.5 -158t241.5 -413h-311q-45 128 -146.5 201.5t-236.5 73.5q-182 0 -304 -129.5
t-122 -323.5q0 -193 122 -321.5t304 -128.5q141 0 244 79.5t142 216.5h313q-49 -266 -241 -429t-458 -163z" />
    <glyph glyph-name="ccircumflex" unicode="&#x109;" horiz-adv-x="1280" 
d="M1067 1228h-256l-150 149l-149 -149h-256l235 312h339zM658 -31q-123 0 -232 45.5t-187 123.5t-123 187t-45 231t45 230t123 185t187.5 121.5t233.5 44.5q214 0 367.5 -124.5t194.5 -329.5h-297q-36 82 -107 127.5t-160 45.5q-121 0 -202.5 -86.5t-81.5 -214.5t82 -216.5
t202 -88.5q91 0 160 48t107 137h301q-39 -209 -195.5 -337.5t-372.5 -128.5z" />
    <glyph glyph-name="Cdotaccent" unicode="&#x10a;" horiz-adv-x="1579" 
d="M659 1575v275h311v-275h-311zM821 -31q-155 0 -292.5 57.5t-235.5 156.5t-155 237.5t-57 294.5q0 158 57 297t155 238t235.5 156.5t292.5 57.5q261 0 452.5 -158t241.5 -413h-311q-45 128 -146.5 201.5t-236.5 73.5q-182 0 -304 -129.5t-122 -323.5q0 -193 122 -321.5
t304 -128.5q141 0 244 79.5t142 216.5h313q-49 -266 -241 -429t-458 -163z" />
    <glyph glyph-name="cdotaccent" unicode="&#x10b;" horiz-adv-x="1280" 
d="M509 1248v283h298v-283h-298zM658 -31q-123 0 -232 45.5t-187 123.5t-123 187t-45 231t45 230t123 185t187.5 121.5t233.5 44.5q214 0 367.5 -124.5t194.5 -329.5h-297q-36 82 -107 127.5t-160 45.5q-121 0 -202.5 -86.5t-81.5 -214.5t82 -216.5t202 -88.5q91 0 160 48
t107 137h301q-39 -209 -195.5 -337.5t-372.5 -128.5z" />
    <glyph glyph-name="Ccaron" unicode="&#x10c;" horiz-adv-x="1579" 
d="M963 1862h257l-237 -290h-339l-235 290h256l148 -139zM821 -31q-155 0 -292.5 57.5t-235.5 156.5t-155 237.5t-57 294.5q0 158 57 297t155 238t235.5 156.5t292.5 57.5q261 0 452.5 -158t241.5 -413h-311q-45 128 -146.5 201.5t-236.5 73.5q-182 0 -304 -129.5
t-122 -323.5q0 -193 122 -321.5t304 -128.5q141 0 244 79.5t142 216.5h313q-49 -266 -241 -429t-458 -163z" />
    <glyph glyph-name="ccaron" unicode="&#x10d;" horiz-adv-x="1280" 
d="M807 1540h256l-237 -312h-339l-235 312h257l148 -149zM658 -31q-123 0 -232 45.5t-187 123.5t-123 187t-45 231t45 230t123 185t187.5 121.5t233.5 44.5q214 0 367.5 -124.5t194.5 -329.5h-297q-36 82 -107 127.5t-160 45.5q-121 0 -202.5 -86.5t-81.5 -214.5t82 -216.5
t202 -88.5q91 0 160 48t107 137h301q-39 -209 -195.5 -337.5t-372.5 -128.5z" />
    <glyph glyph-name="Dcaron" unicode="&#x10e;" horiz-adv-x="1517" 
d="M770 1572h-339l-235 290h256l148 -139l150 139h256zM706 1434q156 0 291.5 -54t231 -148.5t150 -227.5t54.5 -286q0 -154 -55 -287.5t-150.5 -228t-231 -148.5t-290.5 -54h-542v1434h542zM699 288q184 0 300.5 120.5t116.5 309.5t-116.5 308.5t-300.5 119.5h-225v-858
h225z" />
    <glyph glyph-name="dcaron" unicode="&#x10f;" horiz-adv-x="1511" 
d="M956 1046v459h299v-1505h-221l-35 92q-147 -125 -347 -125q-251 0 -416 167t-165 419q0 124 44 232.5t120.5 185.5t184.5 121.5t232 44.5q169 0 304 -91zM1338 1505h271v-219q0 -108 -70 -176.5t-190 -76.5v118q58 4 90 35t32 81h-133v238zM677 250q130 0 215.5 86.5
t85.5 216.5t-85.5 216.5t-215.5 86.5t-215.5 -86t-85.5 -217t85.5 -217t215.5 -86z" />
    <glyph glyph-name="Dcroat" unicode="&#x110;" horiz-adv-x="1595" 
d="M786 1434q156 0 291.5 -54t231 -148.5t150 -227.5t54.5 -286q0 -154 -55 -287.5t-150.5 -228t-231 -148.5t-290.5 -54h-543v585h-196v267h196v582h543zM778 288q184 0 300.5 120.5t116.5 309.5t-116.5 308.5t-300.5 119.5h-224v-294h292v-267h-292v-297h224z" />
    <glyph glyph-name="dcroat" unicode="&#x111;" horiz-adv-x="1398" 
d="M1398 1405v-196h-143v-1209h-221l-35 92q-147 -125 -347 -125q-251 0 -416 167t-165 419q0 124 44 232.5t120.5 185.5t184.5 121.5t232 44.5q169 0 304 -91v163h-365v196h365v100h299v-100h143zM677 250q130 0 215.5 86.5t85.5 216.5t-85.5 216.5t-215.5 86.5t-215.5 -86
t-85.5 -217t85.5 -217t215.5 -86z" />
    <glyph glyph-name="Emacron" unicode="&#x112;" horiz-adv-x="1144" 
d="M273 1592v252h642v-252h-642zM474 289h573v-289h-883v1434h861v-287h-551v-283h497v-281h-497v-294z" />
    <glyph glyph-name="emacron" unicode="&#x113;" horiz-adv-x="1286" 
d="M963 1499v-235h-641v235h641zM1217 557q0 -45 -6 -88h-837q19 -113 90.5 -173.5t180.5 -60.5q77 0 138.5 34t95.5 94h314q-60 -181 -208 -287.5t-340 -106.5q-161 0 -292.5 76.5t-206.5 210.5t-75 297q0 164 74.5 298t206 210t293.5 76q166 0 298 -78.5t203 -210.5
t71 -291zM645 882q-99 0 -168 -55t-95 -154h536q-31 101 -101.5 155t-171.5 54z" />
    <glyph glyph-name="Ebreve" unicode="&#x114;" horiz-adv-x="1144" 
d="M595 1553q-156 0 -251.5 85t-95.5 224h230v-9q0 -49 31 -77.5t84 -28.5t84 28.5t31 77.5v9h235q0 -139 -95.5 -224t-252.5 -85zM474 289h573v-289h-883v1434h861v-287h-551v-283h497v-281h-497v-294z" />
    <glyph glyph-name="ebreve" unicode="&#x115;" horiz-adv-x="1286" 
d="M644 1210q-164 0 -264 90.5t-100 239.5h230v-10q0 -59 36.5 -92.5t97.5 -33.5q60 0 94 33.5t34 92.5v10h235q0 -149 -99.5 -239.5t-263.5 -90.5zM1217 557q0 -45 -6 -88h-837q19 -113 90.5 -173.5t180.5 -60.5q77 0 138.5 34t95.5 94h314q-60 -181 -208 -287.5
t-340 -106.5q-161 0 -292.5 76.5t-206.5 210.5t-75 297q0 164 74.5 298t206 210t293.5 76q166 0 298 -78.5t203 -210.5t71 -291zM645 882q-99 0 -168 -55t-95 -154h536q-31 101 -101.5 155t-171.5 54z" />
    <glyph glyph-name="Edotaccent" unicode="&#x116;" horiz-adv-x="1144" 
d="M440 1575v275h310v-275h-310zM474 289h573v-289h-883v1434h861v-287h-551v-283h497v-281h-497v-294z" />
    <glyph glyph-name="edotaccent" unicode="&#x117;" horiz-adv-x="1286" 
d="M793 1531v-283h-298v283h298zM1217 557q0 -45 -6 -88h-837q19 -113 90.5 -173.5t180.5 -60.5q77 0 138.5 34t95.5 94h314q-60 -181 -208 -287.5t-340 -106.5q-161 0 -292.5 76.5t-206.5 210.5t-75 297q0 164 74.5 298t206 210t293.5 76q166 0 298 -78.5t203 -210.5
t71 -291zM645 882q-99 0 -168 -55t-95 -154h536q-31 101 -101.5 155t-171.5 54z" />
    <glyph glyph-name="Eogonek" unicode="&#x118;" horiz-adv-x="1144" 
d="M1047 0q-110 -12 -176.5 -61t-66.5 -114q0 -47 32 -73t90 -26q63 0 120 24v-163q-90 -61 -206 -61t-189 62t-73 160q0 149 139 252h-553v1434h861v-287h-551v-283h497v-281h-497v-294h573v-289z" />
    <glyph glyph-name="eogonek" unicode="&#x119;" horiz-adv-x="1286" 
d="M1218 557q0 -47 -6 -90h-843q21 -108 94.5 -165t185.5 -57q77 0 137.5 31.5t93.5 86.5h314q-32 -103 -97.5 -177t-162.5 -145q-79 -60 -119 -108.5t-40 -103.5q0 -51 33.5 -77t89.5 -26q62 0 122 27v-162q-88 -65 -205 -65q-123 0 -193.5 62.5t-70.5 156.5q0 57 28.5 118
t81.5 113h-12q-162 0 -294.5 75.5t-208 208.5t-75.5 295q0 245 165.5 410t412.5 165q162 0 292.5 -75t203.5 -206t73 -292zM649 872q-101 0 -173.5 -51t-97.5 -143h537q-31 93 -99 143.5t-167 50.5z" />
    <glyph glyph-name="Ecaron" unicode="&#x11a;" horiz-adv-x="1144" 
d="M763 1572h-339l-235 290h257l147 -139l150 139h257zM474 289h573v-289h-883v1434h861v-287h-551v-283h497v-281h-497v-294z" />
    <glyph glyph-name="ecaron" unicode="&#x11b;" horiz-adv-x="1286" 
d="M812 1228h-339l-235 312h257l148 -149l150 149h256zM1217 557q0 -45 -6 -88h-837q19 -113 90.5 -173.5t180.5 -60.5q77 0 138.5 34t95.5 94h314q-60 -181 -208 -287.5t-340 -106.5q-161 0 -292.5 76.5t-206.5 210.5t-75 297q0 164 74.5 298t206 210t293.5 76
q166 0 298 -78.5t203 -210.5t71 -291zM645 882q-99 0 -168 -55t-95 -154h536q-31 101 -101.5 155t-171.5 54z" />
    <glyph glyph-name="Gcircumflex" unicode="&#x11c;" horiz-adv-x="1632" 
d="M817 1710l-148 -138h-256l235 290h339l237 -290h-257zM793 749h763q0 -222 -92.5 -400t-260 -279t-379.5 -101q-156 0 -293.5 56.5t-236.5 155t-156 237t-57 297.5t56 298t153 238.5t234 156.5t294 57q176 0 328.5 -69.5t255 -194t135.5 -283.5h-320q-46 115 -152 182.5
t-241 67.5q-190 0 -309.5 -126t-119.5 -327q0 -200 118 -325t311 -125q139 0 249 67.5t150 178.5h-430v238z" />
    <glyph glyph-name="gcircumflex" unicode="&#x11d;" horiz-adv-x="1374" 
d="M657 1377l-148 -149h-257l235 312h339l237 -312h-256zM1036 1106h194v-978q0 -259 -151 -408.5t-414 -149.5q-225 0 -375 108t-188 298h297q24 -71 98.5 -110.5t162.5 -39.5q117 0 197 70.5t80 188.5v42q-141 -99 -316 -99q-152 0 -278.5 73t-199 200.5t-72.5 280.5
q0 152 72.5 279.5t199 201.5t278.5 74q215 0 367 -141zM656 295q122 0 202 81.5t80 205.5q0 123 -79.5 203.5t-202.5 80.5q-122 0 -202 -80.5t-80 -203.5q0 -124 79.5 -205.5t202.5 -81.5z" />
    <glyph glyph-name="Gbreve" unicode="&#x11e;" horiz-adv-x="1632" 
d="M819 1553q-156 0 -251.5 85t-95.5 224h230v-9q0 -49 31 -77.5t84 -28.5t84 28.5t31 77.5v9h235q0 -139 -95.5 -224t-252.5 -85zM793 749h763q0 -222 -92.5 -400t-260 -279t-379.5 -101q-156 0 -293.5 56.5t-236.5 155t-156 237t-57 297.5t56 298t153 238.5t234 156.5
t294 57q176 0 328.5 -69.5t255 -194t135.5 -283.5h-320q-46 115 -152 182.5t-241 67.5q-190 0 -309.5 -126t-119.5 -327q0 -200 118 -325t311 -125q139 0 249 67.5t150 178.5h-430v238z" />
    <glyph glyph-name="gbreve" unicode="&#x11f;" horiz-adv-x="1374" 
d="M654 1210q-164 0 -264 90.5t-100 239.5h230v-10q0 -59 36.5 -92.5t97.5 -33.5q60 0 94 33.5t34 92.5v10h236q0 -149 -100 -239.5t-264 -90.5zM1037 1106h193v-978q0 -259 -151 -408.5t-414 -149.5q-225 0 -375 108t-188 298h297q24 -71 98.5 -110.5t162.5 -39.5
q117 0 197 70.5t80 188.5v42q-141 -99 -316 -99q-152 0 -278.5 73t-199 200.5t-72.5 280.5q0 152 72.5 279.5t199 201.5t278.5 74q215 0 367 -141zM656 295q122 0 202 81.5t80 205.5q0 123 -79.5 203.5t-202.5 80.5q-122 0 -202 -80.5t-80 -203.5q0 -124 79.5 -205.5
t202.5 -81.5z" />
    <glyph glyph-name="Gdotaccent" unicode="&#x120;" horiz-adv-x="1632" 
d="M974 1850v-275h-310v275h310zM793 749h763q0 -222 -92.5 -400t-260 -279t-379.5 -101q-156 0 -293.5 56.5t-236.5 155t-156 237t-57 297.5t56 298t153 238.5t234 156.5t294 57q176 0 328.5 -69.5t255 -194t135.5 -283.5h-320q-46 115 -152 182.5t-241 67.5
q-190 0 -309.5 -126t-119.5 -327q0 -200 118 -325t311 -125q139 0 249 67.5t150 178.5h-430v238z" />
    <glyph glyph-name="gdotaccent" unicode="&#x121;" horiz-adv-x="1374" 
d="M803 1531v-283h-298v283h298zM1036 1106h194v-978q0 -259 -151 -408.5t-414 -149.5q-225 0 -375 108t-188 298h297q24 -71 98.5 -110.5t162.5 -39.5q117 0 197 70.5t80 188.5v42q-141 -99 -316 -99q-152 0 -278.5 73t-199 200.5t-72.5 280.5q0 152 72.5 279.5t199 201.5
t278.5 74q215 0 367 -141zM656 295q122 0 202 81.5t80 205.5q0 123 -79.5 203.5t-202.5 80.5q-122 0 -202 -80.5t-80 -203.5q0 -124 79.5 -205.5t202.5 -81.5z" />
    <glyph glyph-name="uni0122" unicode="&#x122;" horiz-adv-x="1632" 
d="M793 749h763q0 -222 -92.5 -400t-260 -279t-379.5 -101q-156 0 -293.5 56.5t-236.5 155t-156 237t-57 297.5t56 298t153 238.5t234 156.5t294 57q176 0 328.5 -69.5t255 -194t135.5 -283.5h-320q-46 115 -152 182.5t-241 67.5q-190 0 -309.5 -126t-119.5 -327
q0 -200 118 -325t311 -125q139 0 249 67.5t150 178.5h-430v238zM695 -319v237h271v-218q0 -109 -69.5 -177.5t-189.5 -76.5v118q58 4 90 35.5t32 81.5h-134z" />
    <glyph glyph-name="uni0123" unicode="&#x123;" horiz-adv-x="1374" 
d="M788 1474v-238h-270v218q0 109 69.5 177.5t189.5 76.5v-118q-58 -4 -90 -34.5t-33 -81.5h134zM1036 1106h194v-978q0 -259 -151 -408.5t-414 -149.5q-225 0 -375 108t-188 298h297q24 -71 98.5 -110.5t162.5 -39.5q117 0 197 70.5t80 188.5v42q-141 -99 -316 -99
q-152 0 -278.5 73t-199 200.5t-72.5 280.5q0 152 72.5 279.5t199 201.5t278.5 74q215 0 367 -141zM656 295q122 0 202 81.5t80 205.5q0 123 -79.5 203.5t-202.5 80.5q-122 0 -202 -80.5t-80 -203.5q0 -124 79.5 -205.5t202.5 -81.5z" />
    <glyph glyph-name="Hcircumflex" unicode="&#x124;" horiz-adv-x="1488" 
d="M744 1710l-148 -138h-256l235 290h339l236 -290h-256zM1014 1434h310v-1434h-310v593h-540v-593h-310v1434h310v-553h540v553z" />
    <glyph glyph-name="hcircumflex" unicode="&#x125;" horiz-adv-x="1312" 
d="M292 1776l-148 -139h-256l235 291h339l236 -291h-256zM777 1132q187 0 296.5 -124t109.5 -336v-672h-299v622q0 126 -46.5 187t-146.5 61q-113 0 -180.5 -77.5t-67.5 -211.5v-581h-299v1505h299v-502q135 129 334 129z" />
    <glyph glyph-name="Hbar" unicode="&#x126;" horiz-adv-x="1540" 
d="M1487 1303v-240h-138v-1063h-310v593h-539v-593h-310v1063h-137v240h137v131h310v-131h539v131h310v-131h138zM1039 881v182h-539v-182h539z" />
    <glyph glyph-name="hbar" unicode="&#x127;" horiz-adv-x="1312" 
d="M777 1132q187 0 296.5 -124t109.5 -336v-672h-299v622q0 126 -46.5 187t-146.5 61q-113 0 -180.5 -77.5t-67.5 -211.5v-581h-299v1209h-184v196h184v100h299v-100h324v-196h-324v-206q135 129 334 129z" />
    <glyph glyph-name="Itilde" unicode="&#x128;" horiz-adv-x="638" 
d="M455 1561q-33 0 -70 13t-58 24.5t-55 33.5q-61 39 -84 39q-28 0 -45.5 -23.5t-17.5 -60.5v-16h-164v22q0 130 58.5 204.5t166.5 74.5q51 0 89.5 -17.5t80.5 -48.5q22 -17 32.5 -24t28.5 -14.5t34 -7.5q30 0 46.5 23t16.5 62v18h164v-22q0 -130 -59 -205t-164 -75zM164 0
v1434h310v-1434h-310z" />
    <glyph glyph-name="itilde" unicode="&#x129;" horiz-adv-x="585" 
d="M427 1226q-70 0 -175 70q-65 40 -87 40q-28 0 -44.5 -21t-16.5 -55v-22h-167v25q0 129 58 202.5t166 73.5q35 0 68.5 -11.5t53 -23.5t47.5 -33q58 -45 91 -45q29 0 45 21t16 57v24h166v-26q0 -130 -58 -203t-163 -73zM144 0v1106h299v-1106h-299z" />
    <glyph glyph-name="Imacron" unicode="&#x12a;" horiz-adv-x="638" 
d="M65 1592v253h510v-253h-510zM164 0v1434h310v-1434h-310z" />
    <glyph glyph-name="imacron" unicode="&#x12b;" horiz-adv-x="585" 
d="M21 1264v235h544v-235h-544zM144 0v1106h299v-1106h-299z" />
    <glyph glyph-name="Ibreve" unicode="&#x12c;" horiz-adv-x="638" 
d="M321 1553q-146 0 -236 85t-90 224h229v-9q0 -49 25.5 -77.5t69.5 -28.5t69.5 28.5t25.5 77.5v9h235q0 -139 -90 -224t-238 -85zM164 0v1434h310v-1434h-310z" />
    <glyph glyph-name="ibreve" unicode="&#x12d;" horiz-adv-x="585" 
d="M295 1210q-155 0 -249 90.5t-94 239.5h230v-10q0 -59 30.5 -92.5t82.5 -33.5q51 0 79.5 33.5t28.5 92.5v10h235q0 -149 -94 -239.5t-249 -90.5zM144 0v1106h299v-1106h-299z" />
    <glyph glyph-name="Iogonek" unicode="&#x12e;" horiz-adv-x="638" 
d="M438 -274q63 0 120 24v-163q-90 -61 -207 -61q-116 0 -188.5 62t-72.5 160q0 143 134 252h-60v1434h310v-1434q-82 -38 -120.5 -80.5t-38.5 -94.5q0 -46 32.5 -72.5t90.5 -26.5z" />
    <glyph glyph-name="iogonek" unicode="&#x12f;" horiz-adv-x="585" 
d="M442 1531v-283h-298v283h298zM346 -274q60 0 120 24v-163q-92 -61 -206 -61q-111 0 -186.5 59t-75.5 163q0 145 146 260v1098h299v-1058v-48q-105 -25 -162 -70.5t-57 -104.5q0 -50 33.5 -74.5t88.5 -24.5z" />
    <glyph glyph-name="Idotaccent" unicode="&#x130;" horiz-adv-x="638" 
d="M164 1575v275h310v-275h-310zM164 0v1434h310v-1434h-310z" />
    <glyph glyph-name="dotlessi" unicode="&#x131;" horiz-adv-x="585" 
d="M144 0v1106h299v-1106h-299z" />
    <glyph glyph-name="IJ" unicode="&#x132;" horiz-adv-x="1818" 
d="M164 0v1434h310v-1434h-310zM1148 -31q-232 0 -380.5 146t-148.5 374v52h307v-36q0 -111 60.5 -177.5t161.5 -66.5q96 0 155 66t59 178v929h306v-945q0 -229 -143.5 -374.5t-376.5 -145.5z" />
    <glyph glyph-name="ij" unicode="&#x133;" horiz-adv-x="1236" 
d="M144 1253v278h298v-278h-298zM796 1253v278h298v-278h-298zM144 0v1106h299v-1106h-299zM536 -399v275h96q163 0 163 163v1067h299v-1090q0 -182 -116 -298.5t-299 -116.5h-143z" />
    <glyph glyph-name="Jcircumflex" unicode="&#x134;" horiz-adv-x="1247" 
d="M930 1708l-120 -136h-243l213 290h301l214 -290h-245zM789 505v929h306v-945q0 -229 -143.5 -374.5t-376.5 -145.5q-232 0 -380 146t-148 374v52h306v-36q0 -111 60.5 -177.5t161.5 -66.5q96 0 155 66t59 178z" />
    <glyph glyph-name="jcircumflex" unicode="&#x135;" horiz-adv-x="610" 
d="M313 1375l-121 -147h-243l213 312h301l215 -312h-245zM168 50v1056h299v-1078q0 -183 -116.5 -299t-298.5 -116h-143v274h96q163 0 163 163z" />
    <glyph glyph-name="uni0136" unicode="&#x136;" horiz-adv-x="1343" 
d="M818 747l541 -747h-379l-506 700v-700h-310v1434h310v-663l470 663h362zM564 -319v237h270v-218q0 -109 -69.5 -177.5t-189.5 -76.5v118q58 4 90 35.5t32 81.5h-133z" />
    <glyph glyph-name="uni0137" unicode="&#x137;" horiz-adv-x="1175" 
d="M772 579l414 -579h-362l-354 529v-529h-299v1505h299v-890l332 491h344zM506 -319v237h271v-218q0 -109 -69.5 -177.5t-189.5 -76.5v118q58 4 90 35.5t32 81.5h-134z" />
    <glyph glyph-name="kgreenlandic" unicode="&#x138;" horiz-adv-x="1146" 
d="M1159 0h-361l-355 529v-529h-299v1106h299v-492l335 492h341l-375 -529z" />
    <glyph glyph-name="Lacute" unicode="&#x139;" horiz-adv-x="1069" 
d="M642 1862l-205 -290h-226l113 290h318zM474 288h550v-288h-860v1434h310v-1146z" />
    <glyph glyph-name="lacute" unicode="&#x13a;" horiz-adv-x="585" 
d="M174 1642l114 291h318l-205 -291h-227zM144 0v1505h299v-1505h-299z" />
    <glyph glyph-name="uni013B" unicode="&#x13b;" horiz-adv-x="1069" 
d="M474 288h550v-288h-860v1434h310v-1146zM465 -319v237h271v-218q0 -109 -69.5 -177.5t-189.5 -76.5v118q58 4 90 35.5t32 81.5h-134z" />
    <glyph glyph-name="uni013C" unicode="&#x13c;" horiz-adv-x="585" 
d="M144 0v1505h299v-1505h-299zM168 -554v118q58 4 90 35.5t32 81.5h-133v237h270v-218q0 -109 -69.5 -177.5t-189.5 -76.5z" />
    <glyph glyph-name="Lcaron" unicode="&#x13d;" horiz-adv-x="1069" 
d="M714 1151q58 4 90 35t32 81h-134v238h271v-218q0 -109 -69.5 -177.5t-189.5 -76.5v118zM474 288h550v-288h-860v1434h310v-1146z" />
    <glyph glyph-name="lcaron" unicode="&#x13e;" horiz-adv-x="585" 
d="M144 0v1505h299v-1505h-299zM552 1033v118q58 4 90 35t32 81h-134v238h271v-218q0 -109 -69.5 -177.5t-189.5 -76.5z" />
    <glyph glyph-name="Ldot" unicode="&#x13f;" horiz-adv-x="1083" 
d="M474 288h550v-288h-860v1434h310v-1146zM977 836v-320h-317v320h317z" />
    <glyph glyph-name="ldot" unicode="&#x140;" horiz-adv-x="876" 
d="M144 0v1505h299v-1505h-299zM581 571v320h317v-320h-317z" />
    <glyph glyph-name="Lslash" unicode="&#x141;" horiz-adv-x="1069" 
d="M474 288h550v-288h-860v461l-154 -77v264l154 77v709h310v-552l327 164v-269l-327 -162v-327z" />
    <glyph glyph-name="lslash" unicode="&#x142;" horiz-adv-x="585" 
d="M605 1165v-270l-162 -89v-806h-299v642l-163 -89v270l163 89v593h299v-429z" />
    <glyph glyph-name="Nacute" unicode="&#x143;" horiz-adv-x="1540" 
d="M1081 1862l-206 -290h-226l114 290h318zM1073 1434h304v-1434h-259l-650 896v-896h-304v1434h280l629 -875v875z" />
    <glyph glyph-name="nacute" unicode="&#x144;" horiz-adv-x="1312" 
d="M972 1540l-203 -312h-226l111 312h318zM773 1132q188 0 299 -125.5t111 -336.5v-670h-299v622q0 248 -193 248q-115 0 -181.5 -77.5t-66.5 -211.5v-581h-299v1106h205l58 -137q64 76 159.5 119.5t206.5 43.5z" />
    <glyph glyph-name="uni0145" unicode="&#x145;" horiz-adv-x="1540" 
d="M1073 1434h304v-1434h-259l-650 896v-896h-304v1434h280l629 -875v875zM654 -319v237h271v-218q0 -109 -69.5 -177.5t-189.5 -76.5v118q58 4 90 35.5t32 81.5h-134z" />
    <glyph glyph-name="uni0146" unicode="&#x146;" horiz-adv-x="1312" 
d="M773 1132q188 0 299 -125.5t111 -336.5v-670h-299v622q0 248 -193 248q-115 0 -181.5 -77.5t-66.5 -211.5v-581h-299v1106h205l58 -137q64 76 159.5 119.5t206.5 43.5zM518 -319v237h271v-218q0 -108 -70 -177t-190 -77v118q58 4 90 35.5t32 81.5h-133z" />
    <glyph glyph-name="Ncaron" unicode="&#x147;" horiz-adv-x="1540" 
d="M940 1572h-339l-235 290h256l148 -139l150 139h257zM1073 1434h304v-1434h-259l-650 896v-896h-304v1434h280l629 -875v875z" />
    <glyph glyph-name="ncaron" unicode="&#x148;" horiz-adv-x="1312" 
d="M847 1228h-339l-235 312h257l148 -149l150 149h256zM773 1132q188 0 299 -125.5t111 -336.5v-670h-299v622q0 248 -193 248q-115 0 -181.5 -77.5t-66.5 -211.5v-581h-299v1106h205l58 -137q64 76 159.5 119.5t206.5 43.5z" />
    <glyph glyph-name="Eng" unicode="&#x14a;" horiz-adv-x="1540" 
d="M857 -389v282h88q67 0 108.5 41t41.5 105l-627 857v-896h-304v1434h280l629 -877v877h304v-1359q0 -215 -123 -339.5t-337 -124.5h-60z" />
    <glyph glyph-name="eng" unicode="&#x14b;" horiz-adv-x="1312" 
d="M772 1130q190 0 300.5 -124.5t110.5 -337.5v-659q0 -184 -111 -296t-295 -112h-96v266h51q73 0 112.5 40.5t39.5 113.5v600q0 249 -193 249q-115 0 -181.5 -77.5t-66.5 -211.5v-581h-299v1106h205l59 -139q64 76 159 119.5t205 43.5z" />
    <glyph glyph-name="Omacron" unicode="&#x14c;" horiz-adv-x="1685" 
d="M523 1592v252h641v-252h-641zM845 -31q-162 0 -304 57.5t-243 156.5t-159.5 238t-58.5 296t58.5 296t159.5 238t243 156.5t304 57.5q161 0 302.5 -57t242 -156.5t158.5 -238t58 -296.5t-58 -296.5t-158.5 -238t-242 -156.5t-302.5 -57zM845 261q191 0 319 130.5
t128 325.5t-128 325t-319 130t-321 -131t-130 -324t130 -324.5t321 -131.5z" />
    <glyph glyph-name="omacron" unicode="&#x14d;" horiz-adv-x="1337" 
d="M346 1264v235h641v-235h-641zM669 -31q-169 0 -306 76t-214.5 210t-77.5 298q0 166 77.5 299.5t214.5 209t306 75.5q168 0 305 -75.5t215 -209.5t78 -299q0 -164 -78 -298t-215 -210t-305 -76zM669 250q129 0 212 84.5t83 218.5t-83 218.5t-212 84.5t-212 -84.5
t-83 -218.5t83 -218.5t212 -84.5z" />
    <glyph glyph-name="Obreve" unicode="&#x14e;" horiz-adv-x="1685" 
d="M845 1553q-156 0 -251.5 85t-95.5 224h229v-9q0 -49 31.5 -77.5t84.5 -28.5t84 28.5t31 77.5v9h235q0 -139 -95.5 -224t-252.5 -85zM844 -31q-162 0 -304 57.5t-243 156.5t-159.5 238t-58.5 296t58.5 296t159.5 238t243 156.5t304 57.5q215 0 389.5 -97.5t273.5 -268.5
t99 -382t-99 -382t-273.5 -268.5t-389.5 -97.5zM844 261q191 0 319.5 130.5t128.5 325.5t-128.5 325t-319.5 130t-320.5 -131t-129.5 -324q0 -194 129.5 -325t320.5 -131z" />
    <glyph glyph-name="obreve" unicode="&#x14f;" horiz-adv-x="1337" 
d="M667 1210q-164 0 -263.5 90.5t-99.5 239.5h229v-10q0 -59 36.5 -92.5t97.5 -33.5q60 0 94 33.5t34 92.5v10h236q0 -149 -100 -239.5t-264 -90.5zM669 -31q-169 0 -306 76t-214.5 210t-77.5 298q0 166 77.5 299.5t214.5 209t306 75.5q168 0 305 -75.5t215 -209.5t78 -299
q0 -164 -78 -298t-215 -210t-305 -76zM669 250q129 0 212 84.5t83 218.5t-83 218.5t-212 84.5t-212 -84.5t-83 -218.5t83 -218.5t212 -84.5z" />
    <glyph glyph-name="Ohungarumlaut" unicode="&#x150;" horiz-adv-x="1685" 
d="M527 1572l94 290h279l-175 -290h-198zM916 1572l151 290h292l-241 -290h-202zM845 -31q-162 0 -304 57.5t-243 156.5t-159.5 238t-58.5 296t58.5 296t159.5 238t243 156.5t304 57.5q161 0 302.5 -57t242 -156.5t158.5 -238t58 -296.5t-58 -296.5t-158.5 -238t-242 -156.5
t-302.5 -57zM845 261q191 0 319 130.5t128 325.5t-128 325t-319 130t-321 -131t-130 -324t130 -324.5t321 -131.5z" />
    <glyph glyph-name="ohungarumlaut" unicode="&#x151;" horiz-adv-x="1337" 
d="M340 1228l95 312h298l-177 -312h-216zM745 1228l154 312h286l-222 -312h-218zM669 -31q-169 0 -306 76t-214.5 210t-77.5 298q0 166 77.5 299.5t214.5 209t306 75.5q168 0 305 -75.5t215 -209.5t78 -299q0 -164 -78 -298t-215 -210t-305 -76zM669 250q129 0 212 84.5
t83 218.5t-83 218.5t-212 84.5t-212 -84.5t-83 -218.5t83 -218.5t212 -84.5z" />
    <glyph glyph-name="OE" unicode="&#x152;" horiz-adv-x="1976" 
d="M1879 288v-288h-852q-108 -31 -219 -31q-146 0 -279.5 56.5t-232.5 155t-157.5 238.5t-58.5 299q0 206 96 377t263.5 269.5t368.5 98.5q116 0 219 -29h830v-286h-552v-285h499v-280h-499v-295h574zM394 718q0 -214 125.5 -332.5t331.5 -118.5q69 0 144 12v876
q-99 21 -156 21q-187 0 -316 -132.5t-129 -325.5z" />
    <glyph glyph-name="oe" unicode="&#x153;" horiz-adv-x="2172" 
d="M2103 553q0 -42 -6 -84h-843q19 -113 91.5 -173t185.5 -60q78 0 139 33t95 94h314q-60 -181 -208 -287.5t-340 -106.5q-126 0 -235.5 52.5t-186.5 145.5q-79 -94 -193.5 -146t-247.5 -52q-169 0 -305.5 76t-214 210t-77.5 298q0 166 77.5 299.5t214 209t305.5 75.5
q133 0 247 -51.5t193 -144.5q76 93 185.5 144.5t237.5 51.5q122 0 228.5 -44.5t181.5 -121.5t118.5 -185.5t43.5 -232.5zM1531 882q-102 0 -173 -55t-97 -154h543q-32 101 -102 155t-171 54zM668 250q129 0 211.5 84.5t82.5 218.5t-82.5 218.5t-211.5 84.5t-211.5 -84.5
t-82.5 -218.5t82.5 -218.5t211.5 -84.5z" />
    <glyph glyph-name="Racute" unicode="&#x154;" horiz-adv-x="1353" 
d="M929 1862l-206 -290h-226l114 290h318zM953 0l-280 489h-199v-489h-310v1434h579q216 0 358.5 -134.5t142.5 -340.5q0 -139 -70 -248.5t-191 -168.5l317 -542h-347zM474 1147v-371h248q96 0 152 51.5t56 133.5t-56 134t-152 52h-248z" />
    <glyph glyph-name="racute" unicode="&#x155;" horiz-adv-x="833" 
d="M768 1542l-203 -312h-227l112 312h318zM709 1112h98v-282h-129q-126 0 -180.5 -59.5t-54.5 -195.5v-575h-299v1106h191l53 -136q114 142 321 142z" />
    <glyph glyph-name="uni0156" unicode="&#x156;" horiz-adv-x="1353" 
d="M983 542l317 -542h-347l-280 489h-199v-489h-310v1434h579q216 0 358.5 -134.5t142.5 -340.5q0 -139 -70 -248.5t-191 -168.5zM474 1147v-371h248q96 0 152 51.5t56 133.5t-56 134t-152 52h-248zM563 -319v237h271v-218q0 -109 -69.5 -177.5t-189.5 -76.5v118
q58 4 90 35.5t32 81.5h-134z" />
    <glyph glyph-name="uni0157" unicode="&#x157;" horiz-adv-x="833" 
d="M709 1112h98v-282h-129q-126 0 -180.5 -59.5t-54.5 -195.5v-575h-299v1106h191l53 -136q114 142 321 142zM159 -319v237h271v-218q0 -108 -70 -177t-190 -77v118q58 4 90 35.5t32 81.5h-133z" />
    <glyph glyph-name="Rcaron" unicode="&#x158;" horiz-adv-x="1353" 
d="M788 1572h-339l-235 290h256l148 -139l150 139h257zM953 0l-280 489h-199v-489h-310v1434h579q216 0 358.5 -134.5t142.5 -340.5q0 -139 -70 -248.5t-191 -168.5l317 -542h-347zM474 1147v-371h248q96 0 152 51.5t56 133.5t-56 134t-152 52h-248z" />
    <glyph glyph-name="rcaron" unicode="&#x159;" horiz-adv-x="833" 
d="M643 1230h-339l-235 312h257l148 -149l150 149h256zM388 970q114 142 321 142h98v-282h-129q-126 0 -180.5 -59.5t-54.5 -195.5v-575h-299v1106h191z" />
    <glyph glyph-name="Sacute" unicode="&#x15a;" horiz-adv-x="1267" 
d="M484 1572l113 290h318l-205 -290h-226zM640 -28q-250 0 -403 132.5t-153 360.5h312q0 -99 70 -152.5t172 -53.5q93 0 162 46t69 123q0 27 -9.5 49t-32 39t-43 29t-60.5 24t-65.5 18.5t-76.5 18.5q-180 44 -260 83q-190 91 -214 280q-4 30 -4 62q0 204 139.5 316.5
t380.5 112.5q246 0 381.5 -122.5t135.5 -338.5h-307q0 88 -62.5 134.5t-155.5 46.5q-83 0 -142.5 -35t-59.5 -101q0 -29 15.5 -53t36.5 -39t63 -30.5t72.5 -23.5t88.5 -22q49 -12 75.5 -19t74.5 -22t76 -27.5t69 -34t65.5 -43t53 -53.5t43.5 -67t25.5 -81t10.5 -98
q0 -113 -43 -202t-117.5 -144.5t-172 -84t-210.5 -28.5z" />
    <glyph glyph-name="sacute" unicode="&#x15b;" horiz-adv-x="1075" 
d="M400 1228l111 312h318l-203 -312h-226zM536 -31q-208 0 -335.5 108.5t-128.5 286.5h291q1 -71 51.5 -109t133.5 -38q66 0 111.5 29t45.5 82q0 27 -15.5 47t-48.5 33.5t-65 21t-84 16.5q-47 8 -79 14.5t-77.5 19.5t-76.5 28.5t-65.5 41.5t-55 57.5t-34 76.5t-13.5 99
q0 157 123 255.5t322 98.5q200 0 321 -101.5t122 -267.5h-284q-1 65 -44.5 98t-122.5 33q-69 0 -108.5 -29t-39.5 -77q0 -18 6.5 -32.5t23 -25t31 -18t44 -15t48 -11t56.5 -10.5q161 -29 232 -60q179 -80 179 -280q0 -169 -127 -270.5t-337 -101.5z" />
    <glyph glyph-name="Scircumflex" unicode="&#x15c;" horiz-adv-x="1267" 
d="M1011 1572h-256l-150 138l-148 -138h-256l234 290h340zM640 -28q-250 0 -403 132.5t-153 360.5h312q0 -99 70 -152.5t172 -53.5q93 0 162 46t69 123q0 27 -9.5 49t-32 39t-43 29t-60.5 24t-65.5 18.5t-76.5 18.5q-180 44 -260 83q-190 91 -214 280q-4 30 -4 62
q0 204 139.5 316.5t380.5 112.5q246 0 381.5 -122.5t135.5 -338.5h-307q0 88 -62.5 134.5t-155.5 46.5q-83 0 -142.5 -35t-59.5 -101q0 -29 15.5 -53t36.5 -39t63 -30.5t72.5 -23.5t88.5 -22q49 -12 75.5 -19t74.5 -22t76 -27.5t69 -34t65.5 -43t53 -53.5t43.5 -67t25.5 -81
t10.5 -98q0 -113 -43 -202t-117.5 -144.5t-172 -84t-210.5 -28.5z" />
    <glyph glyph-name="scircumflex" unicode="&#x15d;" horiz-adv-x="1075" 
d="M945 1228h-256l-150 149l-148 -149h-257l235 312h339zM536 -31q-208 0 -335.5 108.5t-128.5 286.5h291q1 -71 51.5 -109t133.5 -38q66 0 111.5 29t45.5 82q0 27 -15.5 47t-48.5 33.5t-65 21t-84 16.5q-47 8 -79 14.5t-77.5 19.5t-76.5 28.5t-65.5 41.5t-55 57.5t-34 76.5
t-13.5 99q0 157 123 255.5t322 98.5q200 0 321 -101.5t122 -267.5h-284q-1 65 -44.5 98t-122.5 33q-69 0 -108.5 -29t-39.5 -77q0 -18 6.5 -32.5t23 -25t31 -18t44 -15t48 -11t56.5 -10.5q161 -29 232 -60q179 -80 179 -280q0 -169 -127 -270.5t-337 -101.5z" />
    <glyph glyph-name="Scedilla" unicode="&#x15e;" horiz-adv-x="1267" 
d="M1183 431q0 -199 -125 -315t-326 -139l-14 -56q81 -20 127.5 -69t46.5 -122q0 -97 -78.5 -157t-200.5 -60h-148v150h146q35 0 57 19t22 50t-22 50.5t-57 19.5h-86l-12 15l36 159q-212 24 -338.5 153.5t-126.5 335.5h312q0 -99 70 -152.5t172 -53.5q93 0 162 46t69 123
q0 27 -9.5 49t-32 39t-43 29t-60.5 24t-65.5 18.5t-76.5 18.5q-180 44 -260 83q-190 91 -214 280q-4 30 -4 62q0 204 139.5 316.5t380.5 112.5q246 0 381.5 -122.5t135.5 -338.5h-307q0 88 -62.5 134.5t-155.5 46.5q-83 0 -142.5 -35t-59.5 -101q0 -29 15.5 -53t36.5 -39
t63 -30.5t72.5 -23.5t88.5 -22q49 -12 75.5 -19t74.5 -22t76 -27.5t69 -34t65.5 -43t53 -53.5t43.5 -67t25.5 -81t10.5 -98z" />
    <glyph glyph-name="scedilla" unicode="&#x15f;" horiz-adv-x="1075" 
d="M1000 341q0 -149 -100.5 -247t-272.5 -120l-18 -62q85 -12 135.5 -62.5t50.5 -128.5q0 -94 -74.5 -153t-189.5 -59h-135v152h122q34 0 56 19t22 49t-21.5 48.5t-56.5 18.5h-82l-15 19l44 157q-179 19 -285.5 124.5t-107.5 267.5h291q1 -71 51.5 -109t133.5 -38
q66 0 111.5 29t45.5 82q0 27 -15.5 47t-48.5 33.5t-65 21t-84 16.5q-47 8 -79 14.5t-77.5 19.5t-76.5 28.5t-65.5 41.5t-55 57.5t-34 76.5t-13.5 99q0 157 123 255.5t322 98.5q200 0 321 -101.5t122 -267.5h-284q-1 65 -44.5 98t-122.5 33q-69 0 -108.5 -29t-39.5 -77
q0 -18 6.5 -32.5t23 -25t31 -18t44 -15t48 -11t56.5 -10.5q161 -29 232 -60q179 -80 179 -280z" />
    <glyph glyph-name="Scaron" unicode="&#x160;" horiz-adv-x="1267" 
d="M755 1862h256l-236 -290h-340l-234 290h256l148 -139zM640 -28q-250 0 -403 132.5t-153 360.5h312q0 -99 70 -152.5t172 -53.5q93 0 162 46t69 123q0 27 -9.5 49t-32 39t-43 29t-60.5 24t-65.5 18.5t-76.5 18.5q-180 44 -260 83q-190 91 -214 280q-4 30 -4 62
q0 204 139.5 316.5t380.5 112.5q246 0 381.5 -122.5t135.5 -338.5h-307q0 88 -62.5 134.5t-155.5 46.5q-83 0 -142.5 -35t-59.5 -101q0 -29 15.5 -53t36.5 -39t63 -30.5t72.5 -23.5t88.5 -22q49 -12 75.5 -19t74.5 -22t76 -27.5t69 -34t65.5 -43t53 -53.5t43.5 -67t25.5 -81
t10.5 -98q0 -113 -43 -202t-117.5 -144.5t-172 -84t-210.5 -28.5z" />
    <glyph glyph-name="scaron" unicode="&#x161;" horiz-adv-x="1075" 
d="M685 1540h257l-237 -312h-339l-235 312h256l148 -149zM536 -31q-208 0 -335.5 108.5t-128.5 286.5h291q1 -71 51.5 -109t133.5 -38q66 0 111.5 29t45.5 82q0 27 -15.5 47t-48.5 33.5t-65 21t-84 16.5q-47 8 -79 14.5t-77.5 19.5t-76.5 28.5t-65.5 41.5t-55 57.5t-34 76.5
t-13.5 99q0 157 123 255.5t322 98.5q200 0 321 -101.5t122 -267.5h-284q-1 65 -44.5 98t-122.5 33q-69 0 -108.5 -29t-39.5 -77q0 -18 6.5 -32.5t23 -25t31 -18t44 -15t48 -11t56.5 -10.5q161 -29 232 -60q179 -80 179 -280q0 -169 -127 -270.5t-337 -101.5z" />
    <glyph glyph-name="uni0162" unicode="&#x162;" horiz-adv-x="1196" 
d="M753 0h-70l-14 -60q81 -20 127 -69t46 -122q0 -97 -78.5 -157t-200.5 -60h-147v150h145q35 0 57 19t22 50t-22 50t-57 19h-89l-13 16l38 164h-54v1146h-398v288h1107v-288h-399v-1146z" />
    <glyph glyph-name="uni0163" unicode="&#x163;" horiz-adv-x="880" 
d="M820 0h-201l-19 -65q85 -12 136 -62.5t51 -128.5q0 -94 -75 -153t-190 -59h-135v152h123q34 0 55.5 18.5t21.5 48.5t-21.5 48.5t-55.5 18.5h-83l-15 19l52 183q-118 37 -183.5 134.5t-65.5 240.5v471h-200v63l437 466h57v-289h305v-240h-300v-431q0 -81 44 -125t126 -44
h136v-266z" />
    <glyph glyph-name="Tcaron" unicode="&#x164;" horiz-adv-x="1196" 
d="M767 1572h-339l-235 290h256l148 -139l150 139h257zM1152 1434v-288h-399v-1146h-310v1146h-398v288h1107z" />
    <glyph glyph-name="tcaron" unicode="&#x165;" horiz-adv-x="964" 
d="M824 1505h271v-218q0 -109 -69.5 -177.5t-189.5 -76.5v118q58 4 90 35t32 81h-134v238zM514 435q0 -81 44 -125t126 -44h136v-266h-212q-182 0 -287.5 105.5t-105.5 289.5v471h-200v63l437 466h57v-289h269v-240h-264v-431z" />
    <glyph glyph-name="Tbar" unicode="&#x166;" horiz-adv-x="1196" 
d="M1152 1146h-399v-328h255v-269h-255v-549h-310v549h-234v269h234v328h-398v288h1107v-288z" />
    <glyph glyph-name="tbar" unicode="&#x167;" horiz-adv-x="923" 
d="M731 276h122v-276h-163q-205 0 -325 120t-120 325v21h-207v220h207v180h-200v64l437 465h57v-289h305v-240h-300v-180h308v-220h-308v-11q0 -179 187 -179z" />
    <glyph glyph-name="Utilde" unicode="&#x168;" horiz-adv-x="1482" 
d="M885 1561q-39 0 -80 13.5t-57 22.5t-57 34q-65 40 -91 40q-31 0 -52 -23.5t-21 -60.5v-16h-166v22q0 129 63 204t174 75q90 0 180 -66q63 -46 103 -46q33 0 53 23t20 62v18h166v-22q0 -129 -63 -204.5t-172 -75.5zM742 -31q-256 0 -424.5 160.5t-168.5 410.5v894h311
v-880q0 -133 78.5 -213t203.5 -80t203 80t78 213v880h311v-894q0 -250 -168 -410.5t-424 -160.5z" />
    <glyph glyph-name="utilde" unicode="&#x169;" horiz-adv-x="1296" 
d="M791 1227q-38 0 -78.5 13.5t-57 22.5t-56.5 33q-65 39 -91 39q-30 0 -51.5 -23t-21.5 -59v-16h-165v22q0 129 62.5 203.5t173.5 74.5q89 0 180 -67q59 -45 102 -45q32 0 52.5 23.5t20.5 61.5v18h165v-23q0 -129 -63 -203.5t-172 -74.5zM649 -31q-234 0 -377.5 137
t-143.5 361v639h299v-605q0 -118 59 -184.5t163 -66.5t162 67t58 184v605h299v-639q0 -224 -142 -361t-377 -137z" />
    <glyph glyph-name="Umacron" unicode="&#x16a;" horiz-adv-x="1482" 
d="M421 1592v252h641v-252h-641zM742 -31q-256 0 -424.5 160.5t-168.5 410.5v894h311v-880q0 -133 78.5 -213t203.5 -80t203 80t78 213v880h311v-894q0 -250 -168 -410.5t-424 -160.5z" />
    <glyph glyph-name="umacron" unicode="&#x16b;" horiz-adv-x="1296" 
d="M327 1264v235h641v-235h-641zM649 -31q-234 0 -377.5 137t-143.5 361v639h299v-605q0 -118 59 -184.5t163 -66.5t162 67t58 184v605h299v-639q0 -224 -142 -361t-377 -137z" />
    <glyph glyph-name="Ubreve" unicode="&#x16c;" horiz-adv-x="1482" 
d="M742 1553q-156 0 -251.5 85t-95.5 224h230v-9q0 -49 31 -77.5t84 -28.5t84 28.5t31 77.5v9h235q0 -139 -95.5 -224t-252.5 -85zM742 -31q-256 0 -424.5 160.5t-168.5 410.5v894h311v-880q0 -133 78.5 -213t203.5 -80t203 80t78 213v880h311v-894q0 -250 -168 -410.5
t-424 -160.5z" />
    <glyph glyph-name="ubreve" unicode="&#x16d;" horiz-adv-x="1296" 
d="M649 1210q-164 0 -264 90.5t-100 239.5h230v-10q0 -59 36.5 -92.5t97.5 -33.5q60 0 94 33.5t34 92.5v10h235q0 -149 -99.5 -239.5t-263.5 -90.5zM649 -31q-234 0 -377.5 137t-143.5 361v639h299v-605q0 -118 59 -184.5t163 -66.5t162 67t58 184v605h299v-639
q0 -224 -142 -361t-377 -137z" />
    <glyph glyph-name="Uring" unicode="&#x16e;" horiz-adv-x="1482" 
d="M742 1525q-124 0 -200 72t-76 189q0 118 76 190t200 72q123 0 198 -72t75 -190q0 -117 -75.5 -189t-197.5 -72zM742 1671q51 0 85 32.5t34 82.5t-34 82.5t-85 32.5q-52 0 -86.5 -32.5t-34.5 -82.5t34.5 -82.5t86.5 -32.5zM742 -31q-256 0 -424.5 160.5t-168.5 410.5v894
h311v-880q0 -133 78.5 -213t203.5 -80t203 80t78 213v880h311v-894q0 -250 -168 -410.5t-424 -160.5z" />
    <glyph glyph-name="uring" unicode="&#x16f;" horiz-adv-x="1296" 
d="M649 1198q-116 0 -188 68.5t-72 178.5q0 111 72 178.5t188 67.5t187.5 -67.5t71.5 -178.5q0 -110 -71.5 -178.5t-187.5 -68.5zM649 1336q49 0 81 31t32 78t-32 77.5t-81 30.5t-81 -30.5t-32 -77.5t32 -78t81 -31zM649 -31q-234 0 -377.5 137t-143.5 361v639h299v-605
q0 -118 59 -184.5t163 -66.5t162 67t58 184v605h299v-639q0 -224 -142 -361t-377 -137z" />
    <glyph glyph-name="Uhungarumlaut" unicode="&#x170;" horiz-adv-x="1482" 
d="M424 1572l95 290h278l-175 -290h-198zM813 1572l151 290h292l-241 -290h-202zM742 -31q-256 0 -424.5 160.5t-168.5 410.5v894h311v-880q0 -133 78.5 -213t203.5 -80t203 80t78 213v880h311v-894q0 -250 -168 -410.5t-424 -160.5z" />
    <glyph glyph-name="uhungarumlaut" unicode="&#x171;" horiz-adv-x="1296" 
d="M322 1228l95 312h297l-177 -312h-215zM727 1228l154 312h286l-222 -312h-218zM649 -31q-234 0 -377.5 137t-143.5 361v639h299v-605q0 -118 59 -184.5t163 -66.5t162 67t58 184v605h299v-639q0 -224 -142 -361t-377 -137z" />
    <glyph glyph-name="Uogonek" unicode="&#x172;" horiz-adv-x="1482" 
d="M1023 1434h310v-887q0 -89 -22 -164.5t-52.5 -125.5t-81.5 -97.5t-90.5 -74t-97.5 -59.5q-89 -51 -135 -95.5t-46 -103.5q0 -51 37.5 -77t94.5 -26t111 26v-166q-96 -59 -216 -59q-118 0 -199.5 60.5t-81.5 168.5q0 56 30 118.5t83 106.5q-228 23 -373 180t-145 388v887
h310v-874q0 -132 78.5 -211.5t203.5 -79.5t203.5 79.5t78.5 211.5v874z" />
    <glyph glyph-name="uogonek" unicode="&#x173;" horiz-adv-x="1292" 
d="M865 1106h299v-639q0 -132 -57 -231.5t-190 -198.5q-78 -57 -113 -101.5t-35 -89.5q0 -51 33.5 -77t89.5 -26q54 0 120 25v-167q-96 -58 -201 -58q-111 0 -187 62t-76 170q0 97 71 198q-219 7 -355 146t-136 356v631h299v-605q0 -116 57 -181.5t159 -65.5q104 0 163 65.5
t59 181.5v605z" />
    <glyph glyph-name="Wcircumflex" unicode="&#x174;" horiz-adv-x="2131" 
d="M1061 1710l-148 -138h-256l235 290h339l236 -290h-256zM1778 1434h324l-442 -1434h-276l-320 804l-311 -804h-276l-452 1434h329l281 -953l377 938h104l387 -938z" />
    <glyph glyph-name="wcircumflex" unicode="&#x175;" horiz-adv-x="1744" 
d="M874 1377l-148 -149h-257l235 312h339l237 -312h-256zM1428 1106h296l-362 -1106h-240l-251 572l-245 -572h-241l-366 1106h304l218 -659l288 651h84l297 -653z" />
    <glyph glyph-name="Ycircumflex" unicode="&#x176;" horiz-adv-x="1390" 
d="M695 1710l-148 -138h-256l235 290h339l236 -290h-256zM1358 1434l-505 -855v-579h-318v581l-500 853h330l331 -574l332 574h330z" />
    <glyph glyph-name="ycircumflex" unicode="&#x177;" horiz-adv-x="1232" 
d="M626 1377l-148 -149h-257l235 312h339l237 -312h-256zM908 1106h318l-482 -1091q-69 -156 -134.5 -242.5t-152.5 -129t-211 -42.5h-123v269h104q106 0 151.5 39t97.5 167l4 9l-468 1021h325l295 -680z" />
    <glyph glyph-name="Ydieresis" unicode="&#x178;" horiz-adv-x="1390" 
d="M299 1574v276h317v-276h-317zM778 1574v276h317v-276h-317zM1358 1434l-505 -855v-579h-318v581l-500 853h330l331 -574l332 574h330z" />
    <glyph glyph-name="Zacute" unicode="&#x179;" horiz-adv-x="1193" 
d="M939 1862l-205 -290h-226l113 290h318zM521 288h616v-288h-1084v46l598 1100h-563v288h1026v-57z" />
    <glyph glyph-name="zacute" unicode="&#x17a;" horiz-adv-x="1024" 
d="M815 1540l-203 -312h-226l111 312h318zM491 275h466v-275h-914v33l471 802h-426v271h869v-41z" />
    <glyph glyph-name="Zdotaccent" unicode="&#x17b;" horiz-adv-x="1193" 
d="M785 1850v-275h-310v275h310zM521 288h616v-288h-1084v46l598 1100h-563v288h1026v-57z" />
    <glyph glyph-name="zdotaccent" unicode="&#x17c;" horiz-adv-x="1024" 
d="M671 1531v-283h-298v283h298zM491 275h466v-275h-914v33l471 802h-426v271h869v-41z" />
    <glyph glyph-name="Zcaron" unicode="&#x17d;" horiz-adv-x="1193" 
d="M799 1572h-340l-234 290h256l148 -139l150 139h256zM521 288h616v-288h-1084v46l598 1100h-563v288h1026v-57z" />
    <glyph glyph-name="zcaron" unicode="&#x17e;" horiz-adv-x="1024" 
d="M691 1228h-340l-234 312h256l148 -149l150 149h257zM491 275h466v-275h-914v33l471 802h-426v271h869v-41z" />
    <glyph glyph-name="longs" unicode="&#x17f;" horiz-adv-x="626" 
d="M144 0v1174q0 149 87.5 235.5t238.5 86.5h247v-272h-155q-119 0 -119 -118v-1106h-299z" />
    <glyph glyph-name="florin" unicode="&#x192;" horiz-adv-x="933" 
d="M715 1160q-50 0 -84 -28.5t-39 -76.5l-16 -131h266l-33 -226h-257l-117 -829q-21 -152 -129.5 -245t-265.5 -93h-168l36 258h87q65 0 110 38.5t55 103.5l106 767h-175l32 226h174l22 161q16 131 109.5 210.5t232.5 79.5h240l-28 -215h-158z" />
    <glyph glyph-name="AEacute" unicode="&#x1fc;" horiz-adv-x="1900" 
d="M1408 1862l-205 -290h-226l113 290h318zM1240 289h563v-289h-878v268h-449l-155 -268h-358l838 1434h979v-285h-540v-285h487v-281h-487v-294zM633 538h292v504z" />
    <glyph glyph-name="aeacute" unicode="&#x1fd;" horiz-adv-x="2181" 
d="M1402 1540l-203 -312h-227l112 312h318zM2112 553q0 -44 -6 -86h-843q20 -108 92.5 -166.5t184.5 -58.5q78 0 139 32t95 89h315q-60 -178 -205 -285.5t-333 -107.5q-207 0 -352 137l-10 -108h-186l-11 112q-148 -142 -355 -142q-119 0 -224 45.5t-180 124t-118.5 186.5
t-43.5 228q0 165 74.5 298.5t204 208.5t287.5 75q213 0 359 -144l14 116h173l13 -111q146 141 355 141q159 0 288 -77t201 -210.5t72 -296.5zM1540 882q-102 0 -172 -54.5t-97 -152.5h542q-31 100 -101.5 153.5t-171.5 53.5zM671 252q127 0 211 86t84 215q0 131 -84 217
t-211 86t-211 -86t-84 -217q0 -129 84 -215t211 -86z" />
    <glyph glyph-name="Oslashacute" unicode="&#x1fe;" horiz-adv-x="1714" 
d="M1165 1862l-206 -290h-226l114 290h318zM1358 1282q129 -101 201.5 -250.5t72.5 -326.5q0 -156 -58 -292.5t-158.5 -233.5t-242 -153t-302.5 -56q-145 0 -272 44l-85 -141h-337l175 278q-129 101 -201 248.5t-72 321.5q0 157 58.5 295t159.5 236t243.5 155t303.5 57
q139 0 268 -45l83 142h333zM844 1171q-191 0 -319 -128.5t-128 -319.5q0 -186 127 -313l443 746q-59 15 -123 15zM863 261q193 0 322 126.5t129 318.5q0 187 -125 315l-442 -745q53 -15 116 -15z" />
    <glyph glyph-name="oslashacute" unicode="&#x1ff;" horiz-adv-x="1368" 
d="M978 1540l-204 -312h-226l112 312h318zM1064 1008q109 -79 170.5 -199t61.5 -263q0 -162 -76.5 -294t-211.5 -207t-301 -75q-106 0 -196 31l-71 -126h-273l130 230q-106 78 -165.5 196t-59.5 259q0 162 77.5 294t213 207t302.5 75q94 0 180 -26l65 121h273zM665 871
q-136 0 -221 -87t-85 -224q0 -131 81 -217l287 522q-30 6 -62 6zM707 236q134 0 218.5 86.5t84.5 223.5q0 136 -85 221l-289 -524q31 -7 71 -7z" />
    <glyph glyph-name="uni0218" unicode="&#x218;" horiz-adv-x="1267" 
d="M640 -28q-250 0 -403 132.5t-153 360.5h312q0 -99 70 -152.5t172 -53.5q93 0 162 46t69 123q0 27 -9.5 49t-32 39t-43 29t-60.5 24t-65.5 18.5t-76.5 18.5q-180 44 -260 83q-190 91 -214 280q-4 30 -4 62q0 204 139.5 316.5t380.5 112.5q246 0 381.5 -122.5t135.5 -338.5
h-307q0 88 -62.5 134.5t-155.5 46.5q-83 0 -142.5 -35t-59.5 -101q0 -29 15.5 -53t36.5 -39t63 -30.5t72.5 -23.5t88.5 -22q49 -12 75.5 -19t74.5 -22t76 -27.5t69 -34t65.5 -43t53 -53.5t43.5 -67t25.5 -81t10.5 -98q0 -113 -43 -202t-117.5 -144.5t-172 -84t-210.5 -28.5z
M550 -573v119q58 4 90 35t32 81h-133v237h271v-218q0 -108 -70 -177t-190 -77z" />
    <glyph glyph-name="uni0219" unicode="&#x219;" horiz-adv-x="1075" 
d="M536 -31q-208 0 -335.5 108.5t-128.5 286.5h291q1 -71 51.5 -109t133.5 -38q66 0 111.5 29t45.5 82q0 27 -15.5 47t-48.5 33.5t-65 21t-84 16.5q-47 8 -79 14.5t-77.5 19.5t-76.5 28.5t-65.5 41.5t-55 57.5t-34 76.5t-13.5 99q0 157 123 255.5t322 98.5q200 0 321 -101.5
t122 -267.5h-284q-1 65 -44.5 98t-122.5 33q-69 0 -108.5 -29t-39.5 -77q0 -18 6.5 -32.5t23 -25t31 -18t44 -15t48 -11t56.5 -10.5q161 -29 232 -60q179 -80 179 -280q0 -169 -127 -270.5t-337 -101.5zM451 -577v119q58 4 90 35t32 81h-134v237h271v-218
q0 -109 -69.5 -177.5t-189.5 -76.5z" />
    <glyph glyph-name="uni021A" unicode="&#x21a;" horiz-adv-x="1196" 
d="M1152 1434v-288h-399v-1146h-310v1146h-398v288h1107zM462 -319v237h271v-218q0 -109 -69.5 -177.5t-189.5 -76.5v118q58 4 90 35.5t32 81.5h-134z" />
    <glyph glyph-name="uni021B" unicode="&#x21b;" horiz-adv-x="880" 
d="M684 266h136v-266h-212q-182 0 -287.5 105.5t-105.5 289.5v471h-200v64l437 465h57v-289h305v-240h-300v-431q0 -81 44 -125t126 -44zM386 -319v237h270v-218q0 -109 -69.5 -177.5t-189.5 -76.5v118q58 4 90 35.5t32 81.5h-133z" />
    <glyph glyph-name="circumflex" unicode="&#x2c6;" horiz-adv-x="1228" 
d="M1053 1228h-257l-150 149l-148 -149h-256l235 312h339z" />
    <glyph glyph-name="caron" unicode="&#x2c7;" horiz-adv-x="1228" 
d="M735 1540h256l-237 -312h-339l-235 312h257l148 -149z" />
    <glyph glyph-name="breve" unicode="&#x2d8;" horiz-adv-x="1228" 
d="M555 1210q-164 0 -264 90.5t-100 239.5h230v-10q0 -59 36.5 -92.5t97.5 -33.5q60 0 94 33.5t34 92.5v10h236q0 -149 -100 -239.5t-264 -90.5z" />
    <glyph glyph-name="dotaccent" unicode="&#x2d9;" horiz-adv-x="714" 
d="M209 1248v283h298v-283h-298z" />
    <glyph glyph-name="ring" unicode="&#x2da;" horiz-adv-x="839" 
d="M420 1198q-116 0 -188 68.5t-72 178.5q0 111 72 178.5t188 67.5t187.5 -67.5t71.5 -178.5q0 -110 -71.5 -178.5t-187.5 -68.5zM420 1336q49 0 81 31t32 78t-32 77.5t-81 30.5t-81 -30.5t-32 -77.5t32 -78t81 -31z" />
    <glyph glyph-name="ogonek" unicode="&#x2db;" horiz-adv-x="886" 
d="M469 -474q-115 0 -187.5 64.5t-72.5 165.5q0 136 126.5 257t330.5 180v-155q-109 -21 -176 -79.5t-67 -131.5q0 -47 35.5 -75t94.5 -28q53 0 112 26v-163q-89 -61 -196 -61z" />
    <glyph glyph-name="tilde" unicode="&#x2dc;" horiz-adv-x="1228" 
d="M750 1227q-38 0 -78.5 13.5t-57 22.5t-56.5 33q-65 39 -91 39q-30 0 -52 -23t-22 -59v-16h-165v22q0 128 63 203t174 75q55 0 95.5 -17.5t83.5 -49.5q59 -45 102 -45q32 0 52.5 23.5t20.5 61.5v18h165v-23q0 -129 -62.5 -203.5t-171.5 -74.5z" />
    <glyph glyph-name="hungarumlaut" unicode="&#x2dd;" horiz-adv-x="1241" 
d="M186 1228l95 312h297l-177 -312h-215zM591 1228l154 312h286l-222 -312h-218z" />
    <glyph glyph-name="gravecomb" unicode="&#x300;" 
d="M-171 1228h-226l-204 312h318z" />
    <glyph glyph-name="acutecomb" unicode="&#x301;" 
d="M-635 1228l112 312h318l-203 -312h-227z" />
    <glyph glyph-name="uni0302" unicode="&#x302;" 
d="M-242 1228h-256l-150 149l-148 -149h-257l235 312h339z" />
    <glyph glyph-name="tildecomb" unicode="&#x303;" 
d="M-479 1227q-38 0 -78.5 13.5t-57 22.5t-56.5 33q-65 39 -91 39q-30 0 -51.5 -23t-21.5 -59v-16h-165v22q0 129 62.5 203.5t173.5 74.5q55 0 95.5 -17.5t83.5 -49.5q59 -45 102 -45q32 0 52.5 23.5t20.5 61.5v18h166v-23q0 -129 -63 -203.5t-172 -74.5z" />
    <glyph glyph-name="uni0304" unicode="&#x304;" 
d="M-840 1264v235h641v-235h-641z" />
    <glyph glyph-name="uni0306" unicode="&#x306;" 
d="M-549 1210q-164 0 -263.5 90.5t-99.5 239.5h229v-10q0 -59 36.5 -92.5t97.5 -33.5q60 0 94 33.5t34 92.5v10h236q0 -149 -100 -239.5t-264 -90.5z" />
    <glyph glyph-name="uni0307" unicode="&#x307;" 
d="M-506 1248v283h297v-283h-297z" />
    <glyph glyph-name="uni0308" unicode="&#x308;" 
d="M-982 1248v283h317v-283h-317zM-510 1248v283h317v-283h-317z" />
    <glyph glyph-name="uni030A" unicode="&#x30a;" 
d="M-420 1198q-116 0 -187.5 68.5t-71.5 178.5q0 111 71.5 178.5t187.5 67.5t187.5 -67.5t71.5 -178.5q0 -110 -71.5 -178.5t-187.5 -68.5zM-420 1336q49 0 81 31t32 78t-32 77.5t-81 30.5t-81 -30.5t-32 -77.5t32 -78t81 -31z" />
    <glyph glyph-name="uni030B" unicode="&#x30b;" 
d="M-1144 1228l94 312h298l-177 -312h-215zM-740 1228l154 312h287l-223 -312h-218z" />
    <glyph glyph-name="uni030C" unicode="&#x30c;" 
d="M-494 1540h256l-237 -312h-339l-235 312h257l148 -149z" />
    <glyph glyph-name="uni0312" unicode="&#x312;" 
d="M-666 1474h135v-238h-271v218q0 109 69.5 177.5t189.5 76.5v-118q-58 -4 -90 -34.5t-33 -81.5z" />
    <glyph glyph-name="uni0326" unicode="&#x326;" 
d="M-326 -554v118q58 4 90 35.5t32 81.5h-134v237h271v-218q0 -109 -69.5 -177.5t-189.5 -76.5z" />
    <glyph glyph-name="uni0327" unicode="&#x327;" 
d="M-373 -65q85 -12 135.5 -62.5t50.5 -128.5q0 -94 -74.5 -153t-189.5 -59h-135v152h122q35 0 56.5 18.5t21.5 48.5t-21.5 48.5t-56.5 18.5h-82l-15 19l75 268h163z" />
    <glyph glyph-name="uni0328" unicode="&#x328;" 
d="M-418 -474q-115 0 -187.5 64.5t-72.5 165.5q0 136 126.5 257t330.5 180l1 -155q-109 -21 -176.5 -79.5t-67.5 -131.5q0 -47 35.5 -75t94.5 -28q54 0 113 26v-163q-89 -61 -197 -61z" />
    <glyph glyph-name="uni0335" unicode="&#x335;" 
d="M-1033 1232v196h807v-196h-807z" />
    <glyph glyph-name="uni0337" unicode="&#x337;" 
d="M-840 434v270l624 342v-270z" />
    <glyph glyph-name="tonos" unicode="&#x384;" horiz-adv-x="839" 
d="M205 1228l111 312h319l-204 -312h-226z" />
    <glyph glyph-name="dieresistonos" unicode="&#x385;" horiz-adv-x="1005" 
d="M334 1227l77 311h280l-136 -311h-221zM56 1284v217h230v-217h-230zM726 1284v217h230v-217h-230z" />
    <glyph glyph-name="Alphatonos" unicode="&#x386;" horiz-adv-x="1470" 
d="M1116 0l-100 272h-571l-98 -272h-329l562 1434h292l580 -1434h-336zM34 1126l113 308h319l-206 -308h-226zM729 1055l-187 -513h376z" />
    <glyph glyph-name="Epsilontonos" unicode="&#x388;" horiz-adv-x="1144" 
d="M-302 1126l114 308h318l-205 -308h-227zM474 289h573v-289h-883v1434h861v-287h-551v-283h497v-281h-497v-294z" />
    <glyph glyph-name="Etatonos" unicode="&#x389;" horiz-adv-x="1488" 
d="M-302 1126l114 308h318l-205 -308h-227zM1014 1434h310v-1434h-310v593h-540v-593h-310v1434h310v-553h540v553z" />
    <glyph glyph-name="Iotatonos" unicode="&#x38a;" horiz-adv-x="638" 
d="M-302 1126l113 308h318l-205 -308h-226zM164 0v1434h310v-1434h-310z" />
    <glyph glyph-name="Omicrontonos" unicode="&#x38c;" horiz-adv-x="1685" 
d="M845 -31q-162 0 -304 57.5t-243.5 156.5t-160 238t-58.5 296t58.5 296t160 238t243.5 156.5t304 57.5q161 0 302.5 -57t242 -156.5t158.5 -238t58 -296.5t-58 -296.5t-158.5 -238t-242 -156.5t-302.5 -57zM-127 1126l113 308h318l-205 -308h-226zM845 261
q191 0 319 130.5t128 325.5t-128 325t-319 130t-321 -131t-130 -324t130 -324.5t321 -131.5z" />
    <glyph glyph-name="Upsilontonos" unicode="&#x38e;" horiz-adv-x="1390" 
d="M1028 1434h330l-505 -855v-579h-318v581l-497 848l-203 -303h-226l113 308h643l331 -574z" />
    <glyph glyph-name="Omegatonos" unicode="&#x38f;" horiz-adv-x="1773" 
d="M1440 288h222v-288h-663v279q154 66 241 191t87 279q0 178 -128 300.5t-313 122.5q-184 0 -312 -123t-128 -300q0 -154 87 -279t241 -191v-279h-663v288h222q-204 218 -204 486q0 190 100.5 349t274.5 250.5t382 91.5t382.5 -91.5t275 -250.5t100.5 -349
q0 -270 -204 -486zM337 1434l-206 -308h-226l113 308h319z" />
    <glyph glyph-name="iotadieresistonos" unicode="&#x390;" horiz-adv-x="731" 
d="M184 1227l66 311h261l-138 -311h-189zM-97 1284v217h230v-217h-230zM534 1284v217h230v-217h-230zM559 -6q-200 0 -313 109.5t-113 303.5v699h299v-680q0 -80 44.5 -123t129.5 -43h96v-266h-143z" />
    <glyph glyph-name="Alpha" unicode="&#x391;" horiz-adv-x="1470" 
d="M1116 0l-100 272h-571l-98 -272h-329l562 1434h292l580 -1434h-336zM729 1055l-187 -513h376z" />
    <glyph glyph-name="Beta" unicode="&#x392;" horiz-adv-x="1314" 
d="M1026 756q95 -49 147 -138.5t52 -203.5q0 -172 -132.5 -293t-319.5 -121h-609v1434h593q185 0 308 -105.5t123 -263.5q0 -92 -43 -174t-119 -135zM887 1017q0 68 -44 110t-116 42h-258v-305h258q73 0 116.5 42.5t43.5 110.5zM744 285q76 0 122.5 45t46.5 116
q0 70 -46.5 115t-122.5 45h-275v-321h275z" />
    <glyph glyph-name="Gamma" unicode="&#x393;" horiz-adv-x="1024" 
d="M978 1434v-288h-504v-1146h-310v1434h814z" />
    <glyph glyph-name="uni0394" unicode="&#x394;" horiz-adv-x="1474" 
d="M865 1434l599 -1434h-1444l576 1434h269zM732 1006l-263 -718h527z" />
    <glyph glyph-name="Epsilon" unicode="&#x395;" horiz-adv-x="1144" 
d="M474 289h573v-289h-883v1434h861v-287h-551v-283h497v-281h-497v-294z" />
    <glyph glyph-name="Zeta" unicode="&#x396;" horiz-adv-x="1193" 
d="M521 288h616v-288h-1084v46l598 1100h-563v288h1026v-57z" />
    <glyph glyph-name="Eta" unicode="&#x397;" horiz-adv-x="1488" 
d="M1014 1434h310v-1434h-310v593h-540v-593h-310v1434h310v-553h540v553z" />
    <glyph glyph-name="Theta" unicode="&#x398;" horiz-adv-x="1689" 
d="M845 -31q-162 0 -304 57t-243 155.5t-159 237.5t-58 297t58 297.5t159 238.5t243 156t304 57t303.5 -57t242.5 -156t159 -238t58 -298q0 -212 -99 -383t-273.5 -267.5t-390.5 -96.5zM845 261q192 0 320.5 130t128.5 326t-128.5 325.5t-320.5 129.5t-321 -130t-129 -325
q0 -197 127.5 -326.5t322.5 -129.5zM559 584v274h572v-274h-572z" />
    <glyph glyph-name="Iota" unicode="&#x399;" horiz-adv-x="638" 
d="M164 0v1434h310v-1434h-310z" />
    <glyph glyph-name="Kappa" unicode="&#x39a;" horiz-adv-x="1343" 
d="M1359 0h-379l-506 700v-700h-310v1434h310v-663l470 663h362l-488 -687z" />
    <glyph glyph-name="Lambda" unicode="&#x39b;" horiz-adv-x="1419" 
d="M1396 0h-336l-350 1024l-362 -1024h-326l541 1434h293z" />
    <glyph glyph-name="Mu" unicode="&#x39c;" horiz-adv-x="1996" 
d="M1921 0h-316l-141 936l-428 -933h-76l-428 932l-141 -935h-316l224 1434h311l388 -879l389 879h312z" />
    <glyph glyph-name="Nu" unicode="&#x39d;" horiz-adv-x="1540" 
d="M1073 1434h304v-1434h-259l-650 896v-896h-304v1434h280l629 -875v875z" />
    <glyph glyph-name="Xi" unicode="&#x39e;" horiz-adv-x="1163" 
d="M113 1133v301h937v-301h-937zM193 581v289h777v-289h-777zM97 0v306h967v-306h-967z" />
    <glyph glyph-name="Omicron" unicode="&#x39f;" horiz-adv-x="1685" 
d="M845 -31q-162 0 -304 57.5t-243.5 156.5t-160 238t-58.5 296t58.5 296t160 238t243.5 156.5t304 57.5q161 0 302.5 -57t242 -156.5t158.5 -238t58 -296.5t-58 -296.5t-158.5 -238t-242 -156.5t-302.5 -57zM845 261q191 0 319 130.5t128 325.5t-128 325t-319 130
t-321 -131t-130 -324t130 -324.5t321 -131.5z" />
    <glyph glyph-name="Pi" unicode="&#x3a0;" horiz-adv-x="1443" 
d="M164 1434h1116v-1434h-310v1146h-496v-1146h-310v1434z" />
    <glyph glyph-name="Rho" unicode="&#x3a1;" horiz-adv-x="1273" 
d="M716 1434q142 0 257.5 -63.5t182 -177t66.5 -252.5q0 -212 -145 -352.5t-361 -140.5h-242v-448h-310v1434h552zM702 735q91 0 148 58t57 148t-56.5 147.5t-148.5 57.5h-228v-411h228z" />
    <glyph glyph-name="Sigma" unicode="&#x3a3;" horiz-adv-x="1173" 
d="M554 288h535v-288h-1056v55l486 672l-474 652v55h1025v-288h-499l291 -400v-37z" />
    <glyph glyph-name="Tau" unicode="&#x3a4;" horiz-adv-x="1196" 
d="M1152 1434v-288h-399v-1146h-310v1146h-398v288h1107z" />
    <glyph glyph-name="Upsilon" unicode="&#x3a5;" horiz-adv-x="1390" 
d="M1358 1434l-505 -855v-579h-318v581l-500 853h330l331 -574l332 574h330z" />
    <glyph glyph-name="Phi" unicode="&#x3a6;" horiz-adv-x="1835" 
d="M1752 721q0 -110 -27 -214t-83.5 -196.5t-136 -164.5t-191.5 -118t-244 -56v-217h-303v217q-163 12 -295.5 79.5t-216 171t-128 230t-44.5 262.5q0 137 44.5 264t128 231t216 172t295.5 80v187h303v-187q132 -10 244 -55t191.5 -116t136 -162.5t83.5 -195t27 -212.5z
M1066 260q175 24 274 155.5t99 301.5q0 168 -99 298t-274 154v-909zM397 717q0 -170 99 -301t274 -155v908q-175 -24 -274 -154t-99 -298z" />
    <glyph glyph-name="Chi" unicode="&#x3a7;" horiz-adv-x="1280" 
d="M1274 0h-348l-283 492l-286 -492h-349l446 752l-418 682h349l256 -442l258 442h340l-412 -693z" />
    <glyph glyph-name="Psi" unicode="&#x3a8;" horiz-adv-x="1673" 
d="M1264 1434h311v-538q0 -162 -74 -289.5t-206.5 -198.5t-300.5 -71h-2v-337h-311v337h-2q-168 0 -300.5 71t-206.5 198.5t-74 289.5v538h310v-520q0 -130 73.5 -203.5t202.5 -73.5h3v797h299v-797h2q129 0 202.5 73.5t73.5 203.5v520z" />
    <glyph glyph-name="uni03A9" unicode="&#x3a9;" horiz-adv-x="1773" 
d="M1440 288h222v-288h-663v279q154 66 241 191t87 279q0 178 -128 300.5t-313 122.5q-184 0 -312 -123t-128 -300q0 -154 87 -279t241 -191v-279h-663v288h222q-204 218 -204 486q0 190 100.5 349t274.5 250.5t382 91.5t382.5 -91.5t275 -250.5t100.5 -349
q0 -270 -204 -486z" />
    <glyph glyph-name="Iotadieresis" unicode="&#x3aa;" horiz-adv-x="638" 
d="M-21 1574v276h285v-276h-285zM375 1574v276h284v-276h-284zM164 0v1434h310v-1434h-310z" />
    <glyph glyph-name="Upsilondieresis" unicode="&#x3ab;" horiz-adv-x="1390" 
d="M299 1574v276h317v-276h-317zM778 1574v276h317v-276h-317zM1358 1434l-505 -855v-579h-318v581l-500 853h330l331 -574l332 574h330z" />
    <glyph glyph-name="alphatonos" unicode="&#x3ac;" horiz-adv-x="1413" 
d="M1000 1538l-204 -311h-226l112 311h318zM1046 1108h224v-1106h-235l-26 99q-151 -132 -358 -132q-164 0 -297 76t-208 210.5t-75 299.5q0 164 75 297.5t208 209t297 75.5q211 0 363 -135zM675 252q130 0 215.5 86t85.5 217t-85.5 217t-215.5 86t-215.5 -86.5
t-85.5 -216.5t85.5 -216.5t215.5 -86.5z" />
    <glyph glyph-name="epsilontonos" unicode="&#x3ad;" horiz-adv-x="1030" 
d="M848 1538l-203 -311h-226l111 311h318zM707 376h272q-2 -184 -126 -295t-326 -111q-200 0 -326.5 106.5t-126.5 275.5q0 163 142 244q-57 42 -83 91.5t-26 114.5q0 146 118 240t301 94q189 0 307.5 -97.5t120.5 -255.5h-271q-4 59 -44 92t-105 33q-68 0 -105 -30.5
t-37 -83.5q0 -50 35 -77t100 -27h119v-215h-119q-74 0 -117 -31.5t-43 -86.5q0 -57 43.5 -90.5t116.5 -33.5q82 0 129.5 38t50.5 105z" />
    <glyph glyph-name="etatonos" unicode="&#x3ae;" horiz-adv-x="1312" 
d="M1029 1538l-203 -311h-227l112 311h318zM777 1137q187 0 296.5 -124.5t109.5 -337.5v-1074h-299v1011q0 248 -193 248q-115 0 -181.5 -77.5t-66.5 -211.5v-571h-299v1106h205l57 -135q64 78 161 122t210 44z" />
    <glyph glyph-name="iotatonos" unicode="&#x3af;" horiz-adv-x="731" 
d="M160 1227l112 311h318l-203 -311h-227zM559 -6q-200 0 -313 109.5t-113 303.5v699h299v-680q0 -80 44.5 -123t129.5 -43h96v-266h-143z" />
    <glyph glyph-name="upsilondieresistonos" unicode="&#x3b0;" horiz-adv-x="1296" 
d="M479 1227l76 311h281l-137 -311h-220zM201 1284v217h229v-217h-229zM871 1284v217h230v-217h-230zM649 -31q-234 0 -377.5 137t-143.5 361v639h299v-605q0 -118 59 -184.5t163 -66.5t162 67t58 184v605h299v-639q0 -224 -142 -361t-377 -137z" />
    <glyph glyph-name="alpha" unicode="&#x3b1;" horiz-adv-x="1413" 
d="M1046 1108h224v-1106h-235l-26 99q-151 -132 -358 -132q-164 0 -297 76t-208 210.5t-75 299.5q0 164 75 297.5t208 209t297 75.5q211 0 363 -135zM675 252q130 0 215.5 86t85.5 217t-85.5 217t-215.5 86t-215.5 -86.5t-85.5 -216.5t85.5 -216.5t215.5 -86.5z" />
    <glyph glyph-name="beta" unicode="&#x3b2;" horiz-adv-x="1271" 
d="M984 795q214 -107 214 -352q0 -203 -146.5 -329.5t-381.5 -126.5q-130 0 -227 44v-425h-299v1367q0 259 136 407.5t375 148.5q132 0 241.5 -51t176.5 -149t67 -225q0 -197 -156 -309zM665 258q113 0 177 54.5t64 146.5q0 89 -62.5 140t-167.5 51h-128v256h117
q91 0 149 51.5t58 131.5q0 85 -61.5 137t-146.5 52q-221 0 -221 -305v-667q109 -48 222 -48z" />
    <glyph glyph-name="gamma" unicode="&#x3b3;" horiz-adv-x="1193" 
d="M1178 1106l-425 -1044v-459h-295v456l-444 1047h316l275 -713l257 713h316z" />
    <glyph glyph-name="delta" unicode="&#x3b4;" horiz-adv-x="1277" 
d="M652 1191q262 -120 410 -295t148 -377q0 -152 -73.5 -278t-205 -199t-292.5 -73q-247 0 -408.5 156.5t-161.5 393.5q0 138 69 251.5t183.5 176t247.5 62.5h17q-206 123 -460 196v253h978v-267h-452zM640 242q122 0 199.5 78t77.5 199q0 122 -78 200.5t-199 78.5
t-198.5 -78.5t-77.5 -200.5q0 -121 77.5 -199t198.5 -78z" />
    <glyph glyph-name="epsilon" unicode="&#x3b5;" horiz-adv-x="1030" 
d="M707 376h272q-2 -184 -126 -295t-326 -111q-200 0 -326.5 106.5t-126.5 275.5q0 163 142 244q-57 42 -83 91.5t-26 114.5q0 146 118 240t301 94q189 0 307.5 -97.5t120.5 -255.5h-271q-4 59 -44 92t-105 33q-68 0 -105 -30.5t-37 -83.5q0 -50 35 -77t100 -27h119v-215
h-119q-74 0 -117 -31.5t-43 -86.5q0 -57 43.5 -90.5t116.5 -33.5q82 0 129.5 38t50.5 105z" />
    <glyph glyph-name="zeta" unicode="&#x3b6;" horiz-adv-x="1056" 
d="M1057 1375q-337 -262 -508.5 -484.5t-171.5 -389.5q0 -63 22.5 -109.5t60 -74.5t86.5 -49.5t103 -38.5t108 -35.5t103 -47t86.5 -67t60 -100.5t22.5 -143q0 -106 -33 -235h-286q25 97 25 166q0 53 -22.5 92t-61 63t-88 43t-104.5 36.5t-110 38.5t-104.5 54.5t-88 79.5
t-61 118.5t-22.5 165.5q0 201 117 385.5t346 373.5h-408v288h929v-130z" />
    <glyph glyph-name="eta" unicode="&#x3b7;" horiz-adv-x="1312" 
d="M777 1137q187 0 296.5 -124.5t109.5 -337.5v-1074h-299v1011q0 248 -193 248q-115 0 -181.5 -77.5t-66.5 -211.5v-571h-299v1106h205l57 -135q64 78 161 122t210 44z" />
    <glyph glyph-name="theta" unicode="&#x3b8;" horiz-adv-x="1441" 
d="M719 1475q196 0 341.5 -98.5t220 -268t74.5 -386.5t-74.5 -386.5t-220 -268t-341.5 -98.5q-197 0 -342.5 99t-219 268t-73.5 386t73.5 386t219 268t342.5 99zM719 1193q-135 0 -219.5 -89.5t-107.5 -254.5h655q-23 164 -108 254t-220 90zM719 250q133 0 218.5 91
t109.5 254h-655q24 -163 108.5 -254t218.5 -91z" />
    <glyph glyph-name="iota" unicode="&#x3b9;" horiz-adv-x="731" 
d="M559 -6q-200 0 -313 109.5t-113 303.5v699h299v-680q0 -80 44.5 -123t129.5 -43h96v-266h-143z" />
    <glyph glyph-name="kappa" unicode="&#x3ba;" horiz-adv-x="1146" 
d="M1159 0h-361l-355 529v-529h-299v1106h299v-492l335 492h341l-375 -529z" />
    <glyph glyph-name="lambda" unicode="&#x3bb;" horiz-adv-x="1193" 
d="M1171 0h-319l-253 653l-274 -653h-318l450 1019q-46 118 -90 165.5t-127 47.5h-82v265h102q174 0 278 -92t193 -325z" />
    <glyph glyph-name="uni03BC" unicode="&#x3bc;" horiz-adv-x="1351" 
d="M909 1106h299v-1106h-196l-66 156q-64 -82 -154 -126t-195 -44q-96 0 -160 38v-423h-293v1505h299v-558q0 -140 47.5 -204.5t149.5 -64.5q120 0 194.5 83t74.5 218v526z" />
    <glyph glyph-name="nu" unicode="&#x3bd;" horiz-adv-x="1196" 
d="M869 1106h310l-439 -1106h-276l-450 1106h319l270 -741z" />
    <glyph glyph-name="xi" unicode="&#x3be;" horiz-adv-x="1087" 
d="M690 204q49 -17 77 -27.5t72.5 -30.5t70.5 -37.5t57.5 -46t48.5 -60t29 -74t12 -92.5q0 -107 -34 -235h-305q27 78 27 166q0 39 -15 71t-36 54t-61.5 44t-73.5 36t-90 35q-61 22 -101 39t-90.5 44t-83 57t-62 70.5t-43.5 93t-14 116.5q0 121 61 214.5t169 150.5
q-186 111 -186 309q0 178 143.5 296t357.5 118q211 0 346 -118t137 -305h-297q-2 77 -53 124t-133 47q-83 0 -135 -47.5t-52 -124.5q0 -78 52.5 -128.5t137.5 -50.5h133v-248h-137q-104 0 -163 -58.5t-59 -148.5q0 -32 9 -59.5t21.5 -47.5t38 -40t44.5 -32t56.5 -27.5
t58.5 -23.5t65 -23z" />
    <glyph glyph-name="omicron" unicode="&#x3bf;" horiz-adv-x="1337" 
d="M669 -31q-169 0 -306 76t-214.5 210t-77.5 298q0 166 77.5 299.5t214.5 209t306 75.5q168 0 305 -75.5t215 -209.5t78 -299q0 -164 -78 -298t-215 -210t-305 -76zM669 250q129 0 212 84.5t83 218.5t-83 218.5t-212 84.5t-212 -84.5t-83 -218.5t83 -218.5t212 -84.5z" />
    <glyph glyph-name="pi" unicode="&#x3c0;" horiz-adv-x="1286" 
d="M144 1106h999v-1106h-297v835h-405v-835h-297v1106z" />
    <glyph glyph-name="rho" unicode="&#x3c1;" horiz-adv-x="1368" 
d="M709 1135q166 0 300.5 -75.5t211 -209t76.5 -297.5t-77.5 -298t-210.5 -209.5t-291 -75.5q-171 0 -297 95v-464h-303v929q0 272 166 438.5t425 166.5zM707 252q130 0 212 83.5t82 217.5t-81.5 217.5t-212.5 83.5t-212 -83.5t-81 -217.5q0 -133 81.5 -217t211.5 -84z" />
    <glyph glyph-name="uni03C2" unicode="&#x3c2;" horiz-adv-x="1236" 
d="M836 -399q25 103 25 166q0 103 -100 157q-48 25 -189 65q-166 47 -243 87q-188 100 -236 310q-18 78 -18 174q0 245 166.5 409t414.5 164q216 0 369 -123t186 -327h-297q-79 169 -261 169q-118 0 -196.5 -84t-78.5 -210q0 -50 11.5 -91.5t28 -71t48.5 -55.5t57 -41
t71.5 -32t74.5 -25t81 -22l60 -16.5t57.5 -16.5t58 -20t52 -24t49.5 -30t41.5 -36t36.5 -45t25.5 -53.5t18 -65.5t5.5 -77q0 -102 -32 -235h-286z" />
    <glyph glyph-name="sigma" unicode="&#x3c3;" horiz-adv-x="1409" 
d="M1358 1108v-269h-206q104 -137 104 -298q0 -110 -39.5 -211t-112 -181.5t-186.5 -128.5t-252 -48q-168 0 -304.5 75t-213.5 207.5t-77 296.5q0 239 170 398t426 159h691zM664 253q132 0 213 82t81 216t-81 216t-213 82t-213 -82t-81 -216t81 -216t213 -82z" />
    <glyph glyph-name="tau" unicode="&#x3c4;" horiz-adv-x="997" 
d="M912 837h-283v-411q0 -80 45 -123t130 -43h96v-266h-143q-200 0 -313.5 109.5t-113.5 303.5v430h-298v269h880v-269z" />
    <glyph glyph-name="upsilon" unicode="&#x3c5;" horiz-adv-x="1296" 
d="M649 -31q-234 0 -377.5 137t-143.5 361v639h299v-605q0 -118 59 -184.5t163 -66.5t162 67t58 184v605h299v-639q0 -224 -142 -361t-377 -137z" />
    <glyph glyph-name="phi" unicode="&#x3c6;" horiz-adv-x="1568" 
d="M1497 541q0 -237 -156 -393t-407 -171v-367h-293v367q-248 13 -409 172.5t-161 391.5q0 192 110 341t299 212l82 -249q-94 -40 -145.5 -117t-51.5 -187q0 -118 78 -199.5t202 -94.5v859h242q270 0 440 -157t170 -408zM927 248q121 14 198.5 96t77.5 197q0 118 -77.5 198
t-198.5 94v-585z" />
    <glyph glyph-name="chi" unicode="&#x3c7;" horiz-adv-x="1116" 
d="M1114 0h-339l-219 366l-224 -366h-329l376 568l-352 538h338l192 -320l205 320h329l-357 -523z" />
    <glyph glyph-name="psi" unicode="&#x3c8;" horiz-adv-x="1640" 
d="M1217 1106h299v-571q0 -243 -150.5 -401t-381.5 -158h-5v-366h-318v366h-5q-231 0 -381.5 159t-150.5 400v571h299v-587q0 -106 72.5 -182t174.5 -76h2v843h296v-843h6q101 0 172 75.5t71 182.5v587z" />
    <glyph glyph-name="omega" unicode="&#x3c9;" horiz-adv-x="1765" 
d="M1559 1106q123 -294 123 -565q0 -263 -114.5 -417.5t-308.5 -154.5q-136 0 -236 73.5t-141 202.5q-41 -129 -141 -202.5t-236 -73.5q-194 0 -308 154t-114 418q0 271 122 565h313q-64 -126 -99.5 -265.5t-35.5 -265.5q0 -151 49 -237t135 -86q80 0 128.5 70.5t48.5 188.5
v369h276v-369q0 -118 48.5 -188.5t128.5 -70.5q86 0 134 85.5t48 237.5q0 125 -35 264.5t-97 266.5h312z" />
    <glyph glyph-name="iotadieresis" unicode="&#x3ca;" horiz-adv-x="731" 
d="M-108 1248v283h317v-283h-317zM364 1248v283h317v-283h-317zM559 -6q-200 0 -313 109.5t-113 303.5v699h299v-680q0 -80 44.5 -123t129.5 -43h96v-266h-143z" />
    <glyph glyph-name="upsilondieresis" unicode="&#x3cb;" horiz-adv-x="1296" 
d="M253 1248v283h317v-283h-317zM725 1248v283h317v-283h-317zM649 -31q-234 0 -377.5 137t-143.5 361v639h300v-605q0 -118 58.5 -184.5t162.5 -66.5t162 67t58 184v605h299v-639q0 -224 -142 -361t-377 -137z" />
    <glyph glyph-name="omicrontonos" unicode="&#x3cc;" horiz-adv-x="1337" 
d="M540 1227l111 311h318l-203 -311h-226zM669 -31q-169 0 -306 76t-214.5 210t-77.5 298q0 166 77.5 299.5t214.5 209t306 75.5q168 0 305 -75.5t215 -209.5t78 -299q0 -164 -78 -298t-215 -210t-305 -76zM669 250q129 0 212 84.5t83 218.5t-83 218.5t-212 84.5t-212 -84.5
t-83 -218.5t83 -218.5t212 -84.5z" />
    <glyph glyph-name="upsilontonos" unicode="&#x3cd;" horiz-adv-x="1296" 
d="M521 1227l112 311h318l-203 -311h-227zM649 -31q-234 0 -377.5 137t-143.5 361v639h299v-605q0 -118 59 -184.5t163 -66.5t162 67t58 184v605h299v-639q0 -224 -142 -361t-377 -137z" />
    <glyph glyph-name="omegatonos" unicode="&#x3ce;" horiz-adv-x="1765" 
d="M1186 1538l-204 -311h-226l112 311h318zM1559 1106q123 -294 123 -565q0 -263 -114.5 -417.5t-308.5 -154.5q-136 0 -236 73.5t-141 202.5q-41 -129 -141 -202.5t-236 -73.5q-194 0 -308 154t-114 418q0 271 122 565h313q-64 -126 -99.5 -265.5t-35.5 -265.5
q0 -151 49 -237t135 -86q80 0 128.5 70.5t48.5 188.5v369h276v-369q0 -118 48.5 -188.5t128.5 -70.5q86 0 134 85.5t48 237.5q0 125 -35 264.5t-97 266.5h312z" />
    <glyph glyph-name="uni0401" unicode="&#x401;" horiz-adv-x="1144" 
d="M198 1574v276h316v-276h-316zM676 1574v276h317v-276h-317zM474 289h573v-289h-883v1434h861v-287h-551v-283h498v-281h-498v-294z" />
    <glyph glyph-name="uni0402" unicode="&#x402;" horiz-adv-x="1542" 
d="M972 970q220 0 356.5 -137t136.5 -357q0 -222 -141.5 -357.5t-372.5 -135.5h-18v295h18q94 0 148 58t54 139q0 83 -54.5 142t-149.5 59q-61 0 -117.5 -31.5t-94.5 -86.5v-558h-311v1146h-381v288h1088v-288h-396v-241q103 65 235 65z" />
    <glyph glyph-name="uni0403" unicode="&#x403;" horiz-adv-x="1024" 
d="M833 1862l-206 -290h-226l114 290h318zM978 1434v-288h-504v-1146h-310v1434h814z" />
    <glyph glyph-name="uni0404" unicode="&#x404;" horiz-adv-x="1589" 
d="M1216 561h310q-49 -268 -241.5 -430t-462.5 -162q-158 0 -295.5 57.5t-235.5 156.5t-154 237.5t-56 296.5t57 297t155 238t235.5 156t293.5 57q263 0 451 -154t249 -417h-311q-48 128 -151 201t-238 73q-149 0 -260.5 -85t-151.5 -227h549v-277h-549q39 -142 151 -228
t261 -86q141 0 245.5 79.5t148.5 216.5z" />
    <glyph glyph-name="uni0405" unicode="&#x405;" horiz-adv-x="1267" 
d="M640 -28q-250 0 -403 132.5t-153 360.5h312q0 -99 70 -152.5t172 -53.5q93 0 162 46t69 123q0 27 -9.5 49t-32 39t-43 29t-60.5 24t-65.5 18.5t-76.5 18.5q-180 44 -260 83q-190 91 -214 280q-4 30 -4 62q0 204 139.5 316.5t380.5 112.5q246 0 381.5 -122.5t135.5 -338.5
h-307q0 88 -62.5 134.5t-155.5 46.5q-83 0 -142.5 -35t-59.5 -101q0 -29 15.5 -53t36.5 -39t63 -30.5t72.5 -23.5t88.5 -22q49 -12 75.5 -19t74.5 -22t76 -27.5t69 -34t65.5 -43t53 -53.5t43.5 -67t25.5 -81t10.5 -98q0 -113 -43 -202t-117.5 -144.5t-172 -84t-210.5 -28.5z
" />
    <glyph glyph-name="uni0406" unicode="&#x406;" horiz-adv-x="638" 
d="M164 0v1434h310v-1434h-310z" />
    <glyph glyph-name="uni0407" unicode="&#x407;" horiz-adv-x="638" 
d="M-21 1574v276h285v-276h-285zM375 1574v276h284v-276h-284zM164 0v1434h310v-1434h-310z" />
    <glyph glyph-name="uni0408" unicode="&#x408;" horiz-adv-x="1247" 
d="M575 -31q-232 0 -380 146t-148 374v52h306v-36q0 -111 60.5 -177.5t161.5 -66.5q96 0 155 66t59 178v929h306v-945q0 -229 -143.5 -374.5t-376.5 -145.5z" />
    <glyph glyph-name="uni0409" unicode="&#x409;" horiz-adv-x="2197" 
d="M1626 992q227 0 372 -138.5t145 -356.5t-145.5 -357.5t-371.5 -139.5h-557v1146h-369l-67 -622q-29 -267 -153 -397.5t-349 -130.5h-79v307h81q167 0 190 210l107 921h950v-442h246zM1604 288q100 0 162.5 59t62.5 152q0 94 -62 151.5t-163 57.5h-224v-420h224z" />
    <glyph glyph-name="uni040A" unicode="&#x40a;" horiz-adv-x="2070" 
d="M1535 917q213 0 349 -129t136 -330q0 -200 -136 -329t-349 -129h-566v608h-495v-608h-310v1434h310v-538h495v538h310v-517h256zM1518 287q87 0 137.5 46t50.5 125t-50 124t-138 45h-239v-340h239z" />
    <glyph glyph-name="uni040B" unicode="&#x40b;" horiz-adv-x="1585" 
d="M979 958q229 0 374.5 -147.5t145.5 -386.5v-424h-315v403q0 135 -62 205t-178 70q-80 0 -188 -36v-642h-311v1146h-400v288h1107v-288h-396v-225q116 37 223 37z" />
    <glyph glyph-name="uni040E" unicode="&#x40e;" horiz-adv-x="1288" 
d="M353 1592v231h616v-231h-616zM960 1434h324l-405 -968q-110 -265 -243.5 -367.5t-367.5 -102.5h-57v288h90q96 0 147.5 29.5t94.5 108.5l-534 1012h349l341 -656z" />
    <glyph glyph-name="uni040F" unicode="&#x40f;" horiz-adv-x="1435" 
d="M1273 1434v-1434h-402v-261h-306v261h-401v1434h310v-1146h488v1146h311z" />
    <glyph glyph-name="uni0410" unicode="&#x410;" horiz-adv-x="1470" 
d="M1116 0l-100 272h-571l-98 -272h-329l562 1434h292l580 -1434h-336zM729 1055l-187 -513h376z" />
    <glyph glyph-name="uni0411" unicode="&#x411;" horiz-adv-x="1265" 
d="M728 915q206 0 337 -128t131 -328t-132.5 -329.5t-336.5 -129.5h-563v1434h920v-284h-615v-235h259zM701 284q78 0 128 49.5t50 125.5q0 77 -49.5 125t-128.5 48h-232v-348h232z" />
    <glyph glyph-name="uni0412" unicode="&#x412;" horiz-adv-x="1314" 
d="M1026 756q95 -49 147 -138.5t52 -203.5q0 -172 -132.5 -293t-319.5 -121h-609v1434h593q185 0 308 -105.5t123 -263.5q0 -92 -43 -174t-119 -135zM887 1017q0 68 -44 110t-116 42h-258v-305h258q73 0 116.5 42.5t43.5 110.5zM744 285q76 0 122.5 45t46.5 116
q0 70 -46.5 115t-122.5 45h-275v-321h275z" />
    <glyph glyph-name="uni0413" unicode="&#x413;" horiz-adv-x="1024" 
d="M978 1434v-288h-504v-1146h-310v1434h814z" />
    <glyph glyph-name="uni0414" unicode="&#x414;" horiz-adv-x="1564" 
d="M1338 288h138v-542h-286v254h-848v-254h-286v542h113q21 16 37 36.5t30.5 43.5t26.5 64t22 81t19.5 112.5t18 139t19 181t19 218.5t22.5 270h955v-1146zM650 1146q-23 -399 -57.5 -584t-102.5 -274h538v858h-378z" />
    <glyph glyph-name="uni0415" unicode="&#x415;" horiz-adv-x="1144" 
d="M474 289h573v-289h-883v1434h861v-287h-551v-283h497v-281h-497v-294z" />
    <glyph glyph-name="uni0416" unicode="&#x416;" horiz-adv-x="2011" 
d="M2022 0h-367l-495 695v-695h-310v695l-495 -695h-366l535 746l-477 688h356l447 -657v657h310v-657l447 657h356l-476 -688z" />
    <glyph glyph-name="uni0417" unicode="&#x417;" horiz-adv-x="1200" 
d="M928 745q89 -55 137 -140.5t48 -187.5q0 -85 -28.5 -158t-78 -125.5t-116 -90t-143 -56t-158.5 -18.5q-100 0 -191.5 30.5t-164.5 87.5t-116.5 147t-44.5 200h303q2 -91 64.5 -143t149.5 -52q92 0 156.5 50t64.5 138q0 81 -60.5 129.5t-160.5 48.5h-130v262h130
q85 0 138.5 46.5t53.5 120.5q0 81 -55.5 127t-136.5 46q-79 0 -138.5 -48t-61.5 -128h-296q1 103 43 187.5t112 137t157 81t182 28.5q96 0 183 -28t156 -80t110 -134.5t41 -184.5q0 -185 -149 -293z" />
    <glyph glyph-name="uni0418" unicode="&#x418;" horiz-adv-x="1517" 
d="M1128 1434h225v-1434h-310v862l-663 -862h-216v1434h310v-853z" />
    <glyph glyph-name="uni0419" unicode="&#x419;" horiz-adv-x="1517" 
d="M441 1592v231h616v-231h-616zM1128 1434h225v-1434h-310v862l-663 -862h-216v1434h310v-853z" />
    <glyph glyph-name="uni041A" unicode="&#x41a;" horiz-adv-x="1343" 
d="M1359 0h-379l-506 700v-700h-310v1434h310v-663l470 663h362l-488 -687z" />
    <glyph glyph-name="uni041B" unicode="&#x41b;" horiz-adv-x="1548" 
d="M431 1434h954v-1434h-310v1146h-373l-66 -622q-28 -267 -152.5 -397.5t-350.5 -130.5h-79v303h81q166 0 190 211z" />
    <glyph glyph-name="uni041C" unicode="&#x41c;" horiz-adv-x="1996" 
d="M1921 0h-316l-141 936l-428 -933h-76l-428 932l-141 -935h-316l224 1434h311l388 -879l389 879h312z" />
    <glyph glyph-name="uni041D" unicode="&#x41d;" horiz-adv-x="1488" 
d="M1014 1434h310v-1434h-310v593h-540v-593h-310v1434h310v-553h540v553z" />
    <glyph glyph-name="uni041E" unicode="&#x41e;" horiz-adv-x="1685" 
d="M845 -31q-162 0 -304 57.5t-243.5 156.5t-160 238t-58.5 296t58.5 296t160 238t243.5 156.5t304 57.5q161 0 302.5 -57t242 -156.5t158.5 -238t58 -296.5t-58 -296.5t-158.5 -238t-242 -156.5t-302.5 -57zM845 261q191 0 319 130.5t128 325.5t-128 325t-319 130
t-321 -131t-130 -324t130 -324.5t321 -131.5z" />
    <glyph glyph-name="uni041F" unicode="&#x41f;" horiz-adv-x="1443" 
d="M164 1434h1116v-1434h-310v1146h-496v-1146h-310v1434z" />
    <glyph glyph-name="uni0420" unicode="&#x420;" horiz-adv-x="1273" 
d="M716 1434q142 0 257.5 -63.5t182 -177t66.5 -252.5q0 -212 -145 -352.5t-361 -140.5h-242v-448h-310v1434h552zM702 735q91 0 148 58t57 148t-56.5 147.5t-148.5 57.5h-228v-411h228z" />
    <glyph glyph-name="uni0421" unicode="&#x421;" horiz-adv-x="1579" 
d="M821 -31q-155 0 -292.5 57.5t-235.5 156.5t-155 237.5t-57 294.5q0 158 57 297t155 238t235.5 156.5t292.5 57.5q261 0 452.5 -158t241.5 -413h-311q-45 128 -146.5 201.5t-236.5 73.5q-182 0 -304 -129.5t-122 -323.5q0 -193 122 -321.5t304 -128.5q141 0 244 79.5
t142 216.5h313q-49 -266 -241 -429t-458 -163z" />
    <glyph glyph-name="uni0422" unicode="&#x422;" horiz-adv-x="1196" 
d="M1152 1434v-288h-399v-1146h-310v1146h-398v288h1107z" />
    <glyph glyph-name="uni0423" unicode="&#x423;" horiz-adv-x="1288" 
d="M960 1434h324l-405 -968q-110 -265 -243.5 -367.5t-367.5 -102.5h-57v288h90q96 0 147.5 29.5t94.5 108.5l-534 1012h349l341 -656z" />
    <glyph glyph-name="uni0424" unicode="&#x424;" horiz-adv-x="1835" 
d="M1752 721q0 -110 -27 -214t-83.5 -196.5t-136 -164.5t-191.5 -118t-244 -56v-217h-303v217q-163 12 -295.5 79.5t-216 171t-128 230t-44.5 262.5q0 137 44.5 264t128 231t216 172t295.5 80v187h303v-187q132 -10 244 -55t191.5 -116t136 -162.5t83.5 -195t27 -212.5z
M1066 260q175 24 274 155.5t99 301.5q0 168 -99 298t-274 154v-909zM397 717q0 -170 99 -301t274 -155v908q-175 -24 -274 -154t-99 -298z" />
    <glyph glyph-name="uni0425" unicode="&#x425;" horiz-adv-x="1280" 
d="M1274 0h-348l-283 492l-286 -492h-349l446 752l-418 682h349l256 -442l258 442h340l-412 -693z" />
    <glyph glyph-name="uni0426" unicode="&#x426;" horiz-adv-x="1488" 
d="M1265 288h133v-542h-285v254h-949v1434h310v-1146h481v1146h310v-1146z" />
    <glyph glyph-name="uni0427" unicode="&#x427;" horiz-adv-x="1345" 
d="M872 1434h310v-1434h-310v510q-134 -49 -262 -49q-110 0 -205 37.5t-165.5 106.5t-111 174.5t-40.5 234.5v420h312v-418q0 -135 61.5 -204.5t179.5 -69.5q100 0 231 52v640z" />
    <glyph glyph-name="uni0428" unicode="&#x428;" horiz-adv-x="1994" 
d="M1520 1434h310v-1434h-1666v1434h310v-1146h371v1146h303v-1146h372v1146z" />
    <glyph glyph-name="uni0429" unicode="&#x429;" horiz-adv-x="2060" 
d="M1830 288h141v-542h-285v254h-1522v1434h310v-1146h371v1146h303v-1146h372v1146h310v-1146z" />
    <glyph glyph-name="uni042A" unicode="&#x42a;" horiz-adv-x="1470" 
d="M899 999q227 0 372 -140t145 -359t-145.5 -359.5t-371.5 -140.5h-557v1146h-297v288h607v-435h247zM876 291q100 0 162 58t62 151t-62 150.5t-162 57.5h-224v-417h224z" />
    <glyph glyph-name="uni042B" unicode="&#x42b;" horiz-adv-x="1859" 
d="M721 999q227 0 372 -140t145 -359t-145.5 -359.5t-371.5 -140.5h-557v1434h310v-435h247zM1385 1434h310v-1434h-310v1434zM698 291q100 0 162 58t62 151t-62 150.5t-162 57.5h-224v-417h224z" />
    <glyph glyph-name="uni042C" unicode="&#x42c;" horiz-adv-x="1292" 
d="M721 999q227 0 372 -140t145 -359t-145.5 -359.5t-371.5 -140.5h-557v1434h310v-435h247zM698 291q100 0 162 58t62 151t-62 150.5t-162 57.5h-224v-417h224z" />
    <glyph glyph-name="uni042D" unicode="&#x42d;" horiz-adv-x="1589" 
d="M767 1465q156 0 293.5 -57t235.5 -156t155 -238t57 -297t-56 -296.5t-154 -237.5t-235.5 -156.5t-295.5 -57.5q-270 0 -463 162t-242 430h310q44 -137 149 -216.5t246 -79.5q150 0 261 86t150 228h-549v277h549q-40 142 -151.5 227.5t-259.5 85.5q-136 0 -239 -73.5
t-151 -201.5h-310q61 263 249 417t451 154z" />
    <glyph glyph-name="uni042E" unicode="&#x42e;" horiz-adv-x="2172" 
d="M1362 1465q157 0 292.5 -56t231.5 -154.5t151 -237.5t55 -300t-54.5 -300t-150 -237.5t-231.5 -154.5t-294 -56q-280 0 -478 167.5t-242 438.5h-168v-575h-310v1434h310v-571h169q45 270 241.5 436t477.5 166zM1352 263q189 0 310 128t121 326q0 197 -121.5 325.5
t-309.5 128.5q-187 0 -309.5 -128.5t-122.5 -325.5t122.5 -325.5t309.5 -128.5z" />
    <glyph glyph-name="uni042F" unicode="&#x42f;" horiz-adv-x="1359" 
d="M607 1434h589v-1434h-310v497h-200l-271 -497h-350l312 545q-132 60 -205 167.5t-73 246.5q0 202 145 338.5t363 136.5zM625 770h261v375h-261q-93 0 -150 -51.5t-57 -134.5q0 -84 57.5 -136.5t149.5 -52.5z" />
    <glyph glyph-name="uni0430" unicode="&#x430;" horiz-adv-x="1413" 
d="M1046 1108h224v-1106h-235l-26 99q-151 -132 -358 -132q-164 0 -297 76t-208 210.5t-75 299.5q0 164 75 297.5t208 209t297 75.5q211 0 363 -135zM675 252q130 0 215.5 86t85.5 217t-85.5 217t-215.5 86t-215.5 -86.5t-85.5 -216.5t85.5 -216.5t215.5 -86.5z" />
    <glyph glyph-name="uni0431" unicode="&#x431;" horiz-adv-x="1347" 
d="M734 1060q244 0 392.5 -146.5t148.5 -386.5q0 -252 -160.5 -405t-425.5 -153q-284 0 -439.5 175.5t-155.5 495.5q0 366 159 578t495 295l369 92v-294l-368 -91q-138 -34 -217.5 -97.5t-104.5 -161.5q138 99 307 99zM689 245q122 0 202 81t80 203t-80 203t-202 81
t-202 -80.5t-80 -203.5q0 -122 80 -203t202 -81z" />
    <glyph glyph-name="uni0432" unicode="&#x432;" horiz-adv-x="1175" 
d="M938 588q76 -34 118.5 -101.5t42.5 -155.5q0 -142 -99.5 -236.5t-251.5 -94.5h-604v1106h596q142 0 233.5 -79t91.5 -202q0 -74 -33.5 -136t-93.5 -101zM772 777q0 47 -31 76.5t-82 29.5h-222v-213h222q51 0 82 30t31 77zM674 237q56 0 88.5 30t32.5 83q0 52 -33 82.5
t-89 30.5h-236v-226h237z" />
    <glyph glyph-name="uni0433" unicode="&#x433;" horiz-adv-x="909" 
d="M873 1106v-265h-436v-841h-293v1106h729z" />
    <glyph glyph-name="uni0434" unicode="&#x434;" horiz-adv-x="1366" 
d="M1147 280h135v-534h-271v254h-692v-254h-271v534h115q27 22 45 55t33 82t28.5 148t26 217t31.5 324h820v-826zM591 843q-17 -252 -44 -377t-76 -186h382v563h-262z" />
    <glyph glyph-name="uni0435" unicode="&#x435;" horiz-adv-x="1286" 
d="M1217 557q0 -45 -6 -88h-837q19 -113 90.5 -173.5t180.5 -60.5q77 0 138.5 34t95.5 94h314q-60 -181 -208 -287.5t-340 -106.5q-161 0 -292.5 76.5t-206.5 210.5t-75 297q0 164 74.5 298t206 210t293.5 76q166 0 298 -78.5t203 -210.5t71 -291zM645 882q-99 0 -168 -55
t-95 -154h536q-31 101 -101.5 155t-171.5 54z" />
    <glyph glyph-name="uni0436" unicode="&#x436;" horiz-adv-x="1691" 
d="M1704 0h-344l-377 512v-512h-288v509l-362 -509h-342l412 576l-369 530h337l324 -479v479h288v-483l338 483h339l-379 -529z" />
    <glyph glyph-name="uni0437" unicode="&#x437;" horiz-adv-x="1028" 
d="M810 594q145 -90 145 -267q0 -158 -127 -258t-327 -100q-204 0 -327 109t-125 291h271q4 -68 51.5 -105.5t129.5 -37.5q74 0 117 32.5t43 87.5q0 56 -43 88.5t-117 32.5h-119v217h119q65 0 100.5 28t35.5 78q0 52 -37.5 81.5t-104.5 29.5q-65 0 -104.5 -32.5t-44.5 -92.5
h-271q2 160 121 260.5t306 100.5q183 0 301 -93t118 -238q0 -128 -111 -212z" />
    <glyph glyph-name="uni0438" unicode="&#x438;" horiz-adv-x="1259" 
d="M948 1106h168v-1106h-288v586l-514 -586h-170v1106h289v-579z" />
    <glyph glyph-name="uni0439" unicode="&#x439;" horiz-adv-x="1259" 
d="M930 1484v-220h-564v220h564zM948 1106h168v-1106h-288v586l-514 -586h-170v1106h289v-579z" />
    <glyph glyph-name="uni043A" unicode="&#x43a;" horiz-adv-x="1146" 
d="M1159 0h-361l-355 529v-529h-299v1106h299v-492l335 492h341l-375 -529z" />
    <glyph glyph-name="uni043B" unicode="&#x43b;" horiz-adv-x="1275" 
d="M342 1106h791v-1106h-294v847h-254l-36 -394q-23 -250 -132.5 -354.5t-326.5 -104.5h-49v270h73q63 0 103.5 43t48.5 123z" />
    <glyph glyph-name="uni043C" unicode="&#x43c;" horiz-adv-x="1652" 
d="M1586 0h-288l-103 666l-341 -667h-58l-341 667l-103 -666h-288l184 1106h255l322 -626l326 626h253z" />
    <glyph glyph-name="uni043D" unicode="&#x43d;" horiz-adv-x="1286" 
d="M844 1106h298v-1106h-298v425h-402v-425h-298v1106h298v-410h402v410z" />
    <glyph glyph-name="uni043E" unicode="&#x43e;" horiz-adv-x="1337" 
d="M669 -31q-169 0 -306 76t-214.5 210t-77.5 298q0 166 77.5 299.5t214.5 209t306 75.5q168 0 305 -75.5t215 -209.5t78 -299q0 -164 -78 -298t-215 -210t-305 -76zM669 250q129 0 212 84.5t83 218.5t-83 218.5t-212 84.5t-212 -84.5t-83 -218.5t83 -218.5t212 -84.5z" />
    <glyph glyph-name="uni043F" unicode="&#x43f;" horiz-adv-x="1286" 
d="M144 1106h999v-1106h-297v835h-405v-835h-297v1106z" />
    <glyph glyph-name="uni0440" unicode="&#x440;" horiz-adv-x="1396" 
d="M747 1137q164 0 296.5 -75.5t207.5 -209.5t75 -299t-75 -299.5t-207.5 -210.5t-296.5 -76q-168 0 -304 93v-459h-299v1505h197l51 -101q149 132 355 132zM722 250q130 0 215.5 86t85.5 217t-85.5 217t-215.5 86t-215.5 -86.5t-85.5 -216.5t85.5 -216.5t215.5 -86.5z" />
    <glyph glyph-name="uni0441" unicode="&#x441;" horiz-adv-x="1280" 
d="M658 -31q-123 0 -232 45.5t-187 123.5t-123 187t-45 231t45 230t123 185t187.5 121.5t233.5 44.5q214 0 367.5 -124.5t194.5 -329.5h-297q-36 82 -107 127.5t-160 45.5q-121 0 -202.5 -86.5t-81.5 -214.5t82 -216.5t202 -88.5q91 0 160 48t107 137h301
q-39 -209 -195.5 -337.5t-372.5 -128.5z" />
    <glyph glyph-name="uni0442" unicode="&#x442;" horiz-adv-x="1087" 
d="M1050 1106v-269h-360v-837h-293v837h-361v269h1014z" />
    <glyph glyph-name="uni0443" unicode="&#x443;" horiz-adv-x="1232" 
d="M908 1106h318l-482 -1091q-69 -156 -134.5 -242.5t-152.5 -129t-211 -42.5h-123v269h104q106 0 151.5 39t97.5 167l4 9l-468 1021h325l295 -680z" />
    <glyph glyph-name="uni0444" unicode="&#x444;" horiz-adv-x="1538" 
d="M1467 551q0 -242 -158.5 -405t-404.5 -176v-318h-270v318q-245 12 -404 175t-159 406q0 241 160.5 406.5t402.5 178.5v307h270v-307q243 -14 403 -178.5t160 -406.5zM360 551q0 -133 77.5 -225t199.5 -104v660q-120 -13 -198.5 -106.5t-78.5 -224.5zM899 222
q122 12 202 105t80 224t-80.5 224.5t-201.5 106.5v-660z" />
    <glyph glyph-name="uni0445" unicode="&#x445;" horiz-adv-x="1116" 
d="M1114 0h-339l-219 366l-224 -366h-329l376 568l-352 538h338l192 -320l205 320h329l-357 -523z" />
    <glyph glyph-name="uni0446" unicode="&#x446;" horiz-adv-x="1333" 
d="M1110 275h143v-529h-271v254h-838v1106h293v-831h380v831h293v-831z" />
    <glyph glyph-name="uni0447" unicode="&#x447;" horiz-adv-x="1171" 
d="M738 1106h290v-1106h-290v359q-93 -32 -202 -32q-212 0 -338 126t-126 342v311h293v-315q0 -203 193 -203q103 0 180 42v476z" />
    <glyph glyph-name="uni0448" unicode="&#x448;" horiz-adv-x="1724" 
d="M1288 1106h294v-1106h-1438v1106h293v-831h284v831h284v-831h283v831z" />
    <glyph glyph-name="uni0449" unicode="&#x449;" horiz-adv-x="1804" 
d="M1582 275h143v-529h-271v254h-1310v1106h293v-831h284v831h284v-831h283v831h294v-831z" />
    <glyph glyph-name="uni044A" unicode="&#x44a;" horiz-adv-x="1282" 
d="M807 802q192 0 309 -110.5t117 -290.5t-117 -290.5t-309 -110.5h-475v847h-293v259h586v-304h182zM776 248q75 0 119 41.5t44 111.5t-44 111.5t-119 41.5h-151v-306h151z" />
    <glyph glyph-name="uni044B" unicode="&#x44b;" horiz-adv-x="1671" 
d="M619 802q192 0 309 -110.5t117 -290.5t-117 -290.5t-309 -110.5h-475v1106h293v-304h182zM1228 1106h299v-1106h-299v1106zM588 248q75 0 118.5 41.5t43.5 111.5t-43.5 111.5t-118.5 41.5h-151v-306h151z" />
    <glyph glyph-name="uni044C" unicode="&#x44c;" horiz-adv-x="1093" 
d="M619 802q192 0 309 -110.5t117 -290.5t-117 -290.5t-309 -110.5h-475v1106h293v-304h182zM588 248q75 0 118.5 41.5t43.5 111.5t-43.5 111.5t-118.5 41.5h-151v-306h151z" />
    <glyph glyph-name="uni044D" unicode="&#x44d;" horiz-adv-x="1275" 
d="M617 1137q165 0 300 -76t211.5 -209t76.5 -295q0 -163 -77 -298t-212 -212.5t-299 -77.5q-211 0 -366 126t-198 329h297q36 -87 107.5 -137.5t163.5 -50.5q101 0 175 56.5t104 151.5h-398v226h397q-29 92 -103.5 146t-174.5 54q-91 0 -164.5 -47t-109.5 -126h-289
q44 198 197 319t362 121z" />
    <glyph glyph-name="uni044E" unicode="&#x44e;" horiz-adv-x="1785" 
d="M1129 1137q167 0 301 -75.5t209.5 -209.5t75.5 -299q0 -255 -165 -419.5t-421 -164.5q-216 0 -366.5 121.5t-191.5 324.5h-133v-415h-294v1106h294v-415h133q42 201 193.5 323.5t364.5 122.5zM1129 248q124 0 207 87.5t83 217.5q0 131 -83 218t-207 87t-206.5 -87
t-82.5 -218q0 -130 82.5 -217.5t206.5 -87.5z" />
    <glyph glyph-name="uni044F" unicode="&#x44f;" horiz-adv-x="1179" 
d="M485 1106h551v-1106h-287v383h-174l-212 -383h-319l247 435q-90 48 -138.5 128t-48.5 179q0 155 109 259.5t272 104.5zM540 612h209v256h-209q-65 0 -102.5 -35.5t-37.5 -92.5t37.5 -92.5t102.5 -35.5z" />
    <glyph glyph-name="uni0451" unicode="&#x451;" horiz-adv-x="1286" 
d="M565 1531v-283h-317v283h317zM1037 1531v-283h-317v283h317zM1217 557q0 -45 -6 -88h-837q19 -113 90.5 -173.5t180.5 -60.5q77 0 138.5 34t95.5 94h314q-60 -181 -208 -287.5t-340 -106.5q-161 0 -292.5 76.5t-206.5 210.5t-75 297q0 164 74.5 298t206 210t293.5 76
q166 0 298 -78.5t203 -210.5t71 -291zM645 882q-99 0 -168 -55t-95 -154h536q-31 101 -101.5 155t-171.5 54z" />
    <glyph glyph-name="uni0452" unicode="&#x452;" horiz-adv-x="1312" 
d="M777 1130q187 0 296.5 -124.5t109.5 -337.5v-650q0 -184 -111 -295.5t-295 -111.5h-96v266h51q73 0 112.5 40.5t39.5 113.5v574q0 248 -193 248q-115 0 -181.5 -77.5t-66.5 -211.5v-564h-299v1209h-185v196h185v100h299v-100h323v-196h-323v-208q135 129 334 129z" />
    <glyph glyph-name="uni0453" unicode="&#x453;" horiz-adv-x="909" 
d="M821 1540l-203 -312h-227l112 312h318zM873 1106v-265h-436v-841h-293v1106h729z" />
    <glyph glyph-name="uni0454" unicode="&#x454;" horiz-adv-x="1275" 
d="M926 424h296q-43 -203 -198 -329t-365 -126q-164 0 -299 77.5t-212 212.5t-77 298q0 162 76.5 295t211.5 209t300 76q209 0 362 -121t197 -319h-289q-36 79 -109.5 126t-164.5 47q-100 0 -174.5 -54t-103.5 -146h397v-226h-398q30 -95 104 -151.5t175 -56.5
q92 0 163.5 50.5t107.5 137.5z" />
    <glyph glyph-name="uni0455" unicode="&#x455;" horiz-adv-x="1075" 
d="M536 -31q-208 0 -335.5 108.5t-128.5 286.5h291q1 -71 51.5 -109t133.5 -38q66 0 111.5 29t45.5 82q0 27 -15.5 47t-48.5 33.5t-65 21t-84 16.5q-47 8 -79 14.5t-77.5 19.5t-76.5 28.5t-65.5 41.5t-55 57.5t-34 76.5t-13.5 99q0 157 123 255.5t322 98.5q200 0 321 -101.5
t122 -267.5h-284q-1 65 -44.5 98t-122.5 33q-69 0 -108.5 -29t-39.5 -77q0 -18 6.5 -32.5t23 -25t31 -18t44 -15t48 -11t56.5 -10.5q161 -29 232 -60q179 -80 179 -280q0 -169 -127 -270.5t-337 -101.5z" />
    <glyph glyph-name="uni0456" unicode="&#x456;" horiz-adv-x="585" 
d="M144 1253v278h298v-278h-298zM144 0v1106h299v-1106h-299z" />
    <glyph glyph-name="uni0457" unicode="&#x457;" horiz-adv-x="585" 
d="M-43 1248v283h268v-283h-268zM360 1248v283h269v-283h-269zM144 0v1106h299v-1106h-299z" />
    <glyph glyph-name="uni0458" unicode="&#x458;" horiz-adv-x="610" 
d="M169 1253v278h298v-278h-298zM-91 -399v275h96q163 0 163 163v1067h299v-1090q0 -182 -116 -298.5t-299 -116.5h-143z" />
    <glyph glyph-name="uni0459" unicode="&#x459;" horiz-adv-x="1771" 
d="M1299 801q192 0 309 -110.5t117 -290.5q0 -179 -117 -289.5t-309 -110.5h-476v847h-239l-36 -393q-23 -250 -132 -355t-326 -105h-51v269h74q63 0 103.5 43t48.5 123l76 677h764v-305h194zM1269 246q75 0 119 41.5t44 112.5t-44 112.5t-119 41.5h-164v-308h164z" />
    <glyph glyph-name="uni045A" unicode="&#x45a;" horiz-adv-x="1773" 
d="M1302 788q192 0 308 -109t116 -285q0 -177 -116 -285.5t-308 -108.5h-474v443h-391v-443h-293v1106h293v-391h391v391h293v-318h181zM1270 249q75 0 118 39t43 106t-43 106t-118 39h-149v-290h149z" />
    <glyph glyph-name="uni045B" unicode="&#x45b;" horiz-adv-x="1312" 
d="M777 1132q187 0 296.5 -124t109.5 -336v-672h-299v622q0 126 -46.5 187t-146.5 61q-113 0 -180.5 -77.5t-67.5 -211.5v-581h-299v1209h-184v196h184v100h299v-100h324v-196h-324v-206q135 129 334 129z" />
    <glyph glyph-name="uni045C" unicode="&#x45c;" horiz-adv-x="1146" 
d="M871 1540l-203 -312h-226l111 312h318zM1159 0h-361l-355 529v-529h-299v1106h299v-492l335 492h341l-375 -529z" />
    <glyph glyph-name="uni045D" unicode="&#x45d;" horiz-adv-x="1259" 
d="M780 1228h-226l-204 312h318zM948 1106h168v-1106h-288v586l-514 -586h-170v1106h289v-579z" />
    <glyph glyph-name="uni045E" unicode="&#x45e;" horiz-adv-x="1232" 
d="M341 1264v220h564v-220h-564zM908 1106h318l-482 -1091q-69 -156 -134.5 -242.5t-152.5 -129t-211 -42.5h-123v269h104q106 0 151.5 39t97.5 167l4 9l-468 1021h325l295 -680z" />
    <glyph glyph-name="uni045F" unicode="&#x45f;" horiz-adv-x="1261" 
d="M1118 1106v-1106h-344v-261h-286v261h-344v1106h293v-831h388v831h293z" />
    <glyph glyph-name="uni0490" unicode="&#x490;" horiz-adv-x="1024" 
d="M694 1649h284v-503h-504v-1146h-310v1434h530v215z" />
    <glyph glyph-name="uni0491" unicode="&#x491;" horiz-adv-x="909" 
d="M594 1331h279v-490h-436v-841h-293v1106h450v225z" />
    <glyph glyph-name="Wgrave" unicode="&#x1e80;" horiz-adv-x="2131" 
d="M955 1572l-206 290h318l114 -290h-226zM1778 1434h324l-442 -1434h-276l-320 804l-311 -804h-276l-452 1434h329l281 -953l377 938h104l387 -938z" />
    <glyph glyph-name="wgrave" unicode="&#x1e81;" horiz-adv-x="1744" 
d="M1003 1228h-226l-204 312h318zM1428 1106h296l-362 -1106h-240l-251 572l-245 -572h-241l-366 1106h304l218 -659l288 651h84l297 -653z" />
    <glyph glyph-name="Wacute" unicode="&#x1e82;" horiz-adv-x="2131" 
d="M1372 1862l-206 -290h-226l114 290h318zM1778 1434h324l-442 -1434h-276l-320 804l-311 -804h-276l-452 1434h329l281 -953l377 938h104l387 -938z" />
    <glyph glyph-name="wacute" unicode="&#x1e83;" horiz-adv-x="1744" 
d="M1164 1540l-203 -312h-226l111 312h318zM1428 1106h296l-362 -1106h-240l-251 572l-245 -572h-241l-366 1106h304l218 -659l288 651h84l297 -653z" />
    <glyph glyph-name="Wdieresis" unicode="&#x1e84;" horiz-adv-x="2131" 
d="M665 1574v276h317v-276h-317zM1144 1574v276h317v-276h-317zM1778 1434h324l-442 -1434h-276l-320 804l-311 -804h-276l-452 1434h329l281 -953l377 938h104l387 -938z" />
    <glyph glyph-name="wdieresis" unicode="&#x1e85;" horiz-adv-x="1744" 
d="M476 1248v283h316v-283h-316zM947 1248v283h317v-283h-317zM1428 1106h296l-362 -1106h-240l-251 572l-245 -572h-241l-366 1106h304l218 -659l288 651h84l297 -653z" />
    <glyph glyph-name="uni1E9E" unicode="&#x1e9e;" horiz-adv-x="1490" 
d="M1088 930q152 -47 238.5 -163.5t86.5 -277.5q0 -216 -147.5 -352.5t-395.5 -136.5h-194v291h194q99 0 162 57.5t63 146.5q0 93 -61.5 150t-163.5 57h-160v47l186 396h-225q-99 0 -150 -51t-51 -150v-944h-317v973q0 208 126.5 334.5t335.5 126.5h686v-49z" />
    <glyph glyph-name="Ygrave" unicode="&#x1ef2;" horiz-adv-x="1390" 
d="M589 1572l-206 290h318l114 -290h-226zM1358 1434l-505 -855v-579h-318v581l-500 853h330l331 -574l332 574h330z" />
    <glyph glyph-name="ygrave" unicode="&#x1ef3;" horiz-adv-x="1232" 
d="M755 1228h-226l-204 312h318zM908 1106h318l-482 -1091q-69 -156 -134.5 -242.5t-152.5 -129t-211 -42.5h-123v269h104q106 0 151.5 39t97.5 167l4 9l-468 1021h325l295 -680z" />
    <glyph glyph-name="endash" unicode="&#x2013;" horiz-adv-x="1310" 
d="M126 431v288h1059v-288h-1059z" />
    <glyph glyph-name="emdash" unicode="&#x2014;" horiz-adv-x="1851" 
d="M126 431v288h1599v-288h-1599z" />
    <glyph glyph-name="quoteleft" unicode="&#x2018;" horiz-adv-x="546" 
d="M416 1560v-146q-79 -11 -117.5 -59.5t-38.5 -117.5h171v-320h-322v295q0 151 83.5 242t223.5 106z" />
    <glyph glyph-name="quoteright" unicode="&#x2019;" horiz-adv-x="530" 
d="M133 843v146q79 11 117.5 59.5t38.5 117.5h-171v320h322v-295q0 -151 -83.5 -242t-223.5 -106z" />
    <glyph glyph-name="quotesinglbase" unicode="&#x201a;" horiz-adv-x="567" 
d="M138 -324v146q79 11 117.5 60t38.5 118h-171v319h322v-294q0 -151 -83.5 -242.5t-223.5 -106.5z" />
    <glyph glyph-name="quotedblleft" unicode="&#x201c;" horiz-adv-x="1017" 
d="M416 1561v-146q-79 -11 -117.5 -60t-38.5 -118h171v-319h-322v295q0 151 83.5 242t223.5 106zM888 1561v-146q-79 -11 -117.5 -60t-38.5 -118h171v-319h-322v295q0 151 83.5 242t223.5 106z" />
    <glyph glyph-name="quotedblright" unicode="&#x201d;" horiz-adv-x="1003" 
d="M133 843v146q79 11 117.5 59.5t38.5 117.5h-171v320h322v-295q0 -151 -83.5 -242t-223.5 -106zM605 843v146q79 11 117.5 59.5t38.5 117.5h-171v320h322v-295q0 -151 -83.5 -242t-223.5 -106z" />
    <glyph glyph-name="quotedblbase" unicode="&#x201e;" horiz-adv-x="1040" 
d="M138 -324v146q79 11 117.5 60t38.5 118h-171v319h322v-294q0 -151 -83.5 -242.5t-223.5 -106.5zM610 -324v146q79 11 118 60t39 118h-172v319h322v-294q0 -151 -83.5 -242.5t-223.5 -106.5z" />
    <glyph glyph-name="dagger" unicode="&#x2020;" horiz-adv-x="1040" 
d="M981 1091v-271h-315v-902h-293v902h-314v271h314v343h293v-343h315z" />
    <glyph glyph-name="daggerdbl" unicode="&#x2021;" horiz-adv-x="1126" 
d="M1024 820h-315v-288h315v-271h-315v-343h-294v343h-313v271h313v288h-313v271h313v343h294v-343h315v-271z" />
    <glyph glyph-name="bullet" unicode="&#x2022;" horiz-adv-x="806" 
d="M403 341q-110 0 -184.5 74.5t-74.5 184.5q0 111 74 185t185 74q112 0 185.5 -73.5t73.5 -185.5q0 -111 -74 -185t-185 -74z" />
    <glyph glyph-name="ellipsis" unicode="&#x2026;" horiz-adv-x="1421" 
d="M123 0v320h316v-320h-316zM553 0v320h316v-320h-316zM983 0v320h317v-320h-317z" />
    <glyph glyph-name="perthousand" unicode="&#x2030;" horiz-adv-x="2383" 
d="M385 734q-143 0 -235 92t-92 235t92 234.5t235 91.5q144 0 235 -91.5t91 -234.5t-91.5 -235t-234.5 -92zM275 0l821 1363h238l-821 -1363h-238zM385 944q50 0 82 33t32 84t-32 83.5t-82 32.5q-49 0 -81.5 -32.5t-32.5 -83.5q0 -50 32.5 -83.5t81.5 -33.5zM1238 -20
q-143 0 -234.5 91.5t-91.5 234.5t91.5 234.5t234.5 91.5t234.5 -91.5t91.5 -234.5t-91.5 -234.5t-234.5 -91.5zM2000 -20q-143 0 -234.5 91.5t-91.5 234.5t91.5 234.5t234.5 91.5t234.5 -91.5t91.5 -234.5t-91.5 -234.5t-234.5 -91.5zM1238 190q50 0 81.5 33t31.5 83
q0 51 -31.5 83.5t-81.5 32.5q-49 0 -81.5 -32.5t-32.5 -83.5q0 -50 32.5 -83t81.5 -33zM2000 190q50 0 82 33t32 83q0 51 -32 83.5t-82 32.5q-49 0 -81 -32.5t-32 -83.5q0 -50 32 -83t81 -33z" />
    <glyph glyph-name="guilsinglleft" unicode="&#x2039;" horiz-adv-x="811" 
d="M386 110l-325 419v35l325 419h352l-332 -436l332 -437h-352z" />
    <glyph glyph-name="guilsinglright" unicode="&#x203a;" horiz-adv-x="811" 
d="M426 110h-352l331 437l-331 436h352l325 -419v-35z" />
    <glyph glyph-name="fraction" unicode="&#x2044;" horiz-adv-x="352" 
d="M-349 -61l828 1556h227l-828 -1556h-227z" />
    <glyph glyph-name="Euro" unicode="&#x20ac;" horiz-adv-x="1331" 
d="M611 397q58 -82 150.5 -126t207.5 -44q136 0 238 46v-260q-120 -45 -249 -45q-224 0 -400 116.5t-256 312.5h-229l53 220h124q-3 33 -3 67q0 20 2 56h-174l54 220h169q79 201 258 321.5t405 120.5q164 0 301 -58l-60 -244q-43 19 -110.5 31.5t-127.5 12.5
q-116 0 -209 -48t-151 -136h555l-56 -220h-574q-2 -18 -2 -56q0 -23 4 -67h542l-55 -220h-407z" />
    <glyph glyph-name="uni20BD" unicode="&#x20bd;" horiz-adv-x="1236" 
d="M764 561h-217v-112h327v-209h-327v-240h-293v240h-140v209h140v123h-140v234h140v556h510q185 0 298 -110t113 -291q0 -179 -113 -289.5t-298 -110.5zM887 961q0 63 -43.5 104t-109.5 41h-187v-289h187q66 0 109.5 41t43.5 103z" />
    <glyph glyph-name="uni2113" unicode="&#x2113;" horiz-adv-x="946" 
d="M653 334h224v-9q0 -162 -91.5 -259t-245.5 -97q-157 0 -252 98t-95 260v33q-76 -30 -124 -46v241q82 34 124 54v495q0 163 93.5 262t247.5 99q153 0 246 -97.5t93 -256.5q0 -173 -118.5 -339t-328.5 -295v-152q0 -58 30.5 -91.5t83.5 -33.5q52 0 82.5 33.5t30.5 89.5v11z
M426 1123v-372q214 169 214 376q0 53 -28 86t-80 32q-51 1 -78.5 -33t-27.5 -89z" />
    <glyph glyph-name="uni2116" unicode="&#x2116;" horiz-adv-x="2291" 
d="M1037 533v833h290v-1366h-246l-618 854v-854h-292v1366h267zM1828 1272q151 0 251.5 -98t99.5 -245q-2 -148 -101 -245.5t-250 -97.5t-252 98t-101 245t101 245t252 98zM1828 801q57 0 92 35.5t35 92.5t-35 94t-92 37t-93 -37t-36 -94t36 -92.5t93 -35.5zM1496 168v255
h664v-255h-664z" />
    <glyph glyph-name="uni2117" unicode="&#x2117;" horiz-adv-x="1695" 
d="M848 1452q219 0 392.5 -93.5t270.5 -262t97 -381.5t-97 -381.5t-270.5 -262.5t-392.5 -94t-392.5 94t-270.5 262.5t-97 381.5t97 381.5t270.5 262t392.5 93.5zM848 151q248 0 408 157.5t160 406.5t-160 406.5t-408 157.5t-408 -157.5t-160 -406.5t160 -406.5t408 -157.5z
M924 1090q127 0 210.5 -77.5t83.5 -195.5t-84 -198t-210 -80h-139v-228h-194v779h333zM915 702q51 0 83.5 32.5t32.5 82.5q0 51 -32 82t-84 31h-134v-228h134z" />
    <glyph glyph-name="trademark" unicode="&#x2122;" horiz-adv-x="1370" 
d="M63 1309v125h465v-125h-163v-387h-136v387h-166zM1259 922h-133l-48 301l-156 -301h-26l-156 302l-49 -302h-134l84 512h118l150 -293l150 293h119z" />
    <glyph glyph-name="estimated" unicode="&#x212e;" horiz-adv-x="1529" 
d="M1462 616h-1067v-372q161 -148 383 -148q126 0 243 47t197 129l147 -4q-94 -136 -255 -212t-332 -76q-188 0 -345 91t-248 248t-91 345q0 138 55 264.5t147 218.5t218.5 146.5t263.5 54.5q135 0 262 -54.5t220 -145t149.5 -213t56.5 -251.5q0 -29 -4 -68zM778 1231
q-107 0 -206 -40t-177 -112v-350h768v350q-79 71 -179 111.5t-206 40.5z" />
    <glyph glyph-name="uni2150" unicode="&#x2150;" horiz-adv-x="1499" 
d="M969 1495h227l-827 -1556h-227zM177 624v635h-135v175h344v-810h-209zM903 810h568v-24l-297 -788h-199l237 629h-309v183z" />
    <glyph glyph-name="uni2151" unicode="&#x2151;" horiz-adv-x="1579" 
d="M969 1495h227l-827 -1556h-227zM177 624v635h-135v175h344v-810h-209zM1202 833q142 0 230 -82.5t88 -215.5q0 -120 -87 -272l-156 -261h-218l135 224q18 32 29 50q-31 -6 -64 -6q-119 0 -196 74t-77 191q0 132 88 215t228 83zM1204 411q55 0 90.5 34.5t35.5 89.5
q0 54 -36 88t-90 34q-57 0 -92.5 -34t-35.5 -88q0 -55 35.5 -89.5t92.5 -34.5z" />
    <glyph glyph-name="uni2152" unicode="&#x2152;" horiz-adv-x="2158" 
d="M969 1495h227l-827 -1556h-227zM177 624v635h-135v175h344v-810h-209zM1754 826q157 0 248 -113t91 -307q0 -195 -91.5 -308.5t-247.5 -113.5t-247 113t-91 309q0 194 90.5 307t247.5 113zM902 635v175h344v-810h-209v635h-135zM1754 177q63 0 98 58.5t35 168.5
q0 109 -35 169t-98 60t-98 -59.5t-35 -167.5q0 -109 35 -169t98 -60z" />
    <glyph glyph-name="uni2153" unicode="&#x2153;" horiz-adv-x="1546" 
d="M969 1495h227l-827 -1556h-227zM177 624v635h-135v175h344v-810h-209zM1295 513q88 -21 140.5 -88t52.5 -161q0 -121 -84 -199.5t-214 -78.5q-126 0 -206 76.5t-83 198.5h187q2 -46 30 -74.5t72 -28.5q47 0 77 31t30 80q0 48 -31.5 76t-85.5 28h-124v37l137 230h-272v170
h538v-36z" />
    <glyph glyph-name="uni2154" unicode="&#x2154;" horiz-adv-x="1769" 
d="M1192 1495h227l-828 -1556h-227zM647 809v-183h-596v44q172 203 246 296.5t101 141.5t27 86q0 39 -21 61.5t-56 22.5q-38 0 -60.5 -24.5t-22.5 -65.5v-16h-200v15q0 125 75 197.5t206 72.5q126 0 205 -71.5t79 -186.5q0 -77 -43.5 -155.5t-175.5 -234.5h236zM1517 513
q88 -21 140.5 -88t52.5 -161q0 -121 -83.5 -199.5t-213.5 -78.5q-126 0 -206.5 76.5t-83.5 198.5h188q2 -46 30 -74.5t72 -28.5q47 0 76.5 31t29.5 80q0 48 -31.5 76t-85.5 28h-123v37l137 230h-273v170h538v-36z" />
    <glyph glyph-name="uni2155" unicode="&#x2155;" horiz-adv-x="1536" 
d="M969 1495h227l-827 -1556h-227zM177 624v635h-135v175h344v-810h-209zM1185 532q132 0 215.5 -75.5t83.5 -192.5q0 -121 -83 -199.5t-211 -78.5t-210 77.5t-82 197.5h188q0 -44 29.5 -73.5t74.5 -29.5t73.5 29.5t28.5 76.5t-30.5 77t-79.5 30h-244l-18 22l45 417h462
v-170h-307l-12 -108h77z" />
    <glyph glyph-name="uni2156" unicode="&#x2156;" horiz-adv-x="1757" 
d="M1192 1495h227l-828 -1556h-227zM647 809v-183h-596v44q172 203 246 296.5t101 141.5t27 86q0 39 -21 61.5t-56 22.5q-38 0 -60.5 -24.5t-22.5 -65.5v-16h-200v15q0 125 75 197.5t206 72.5q126 0 205 -71.5t79 -186.5q0 -77 -43.5 -155.5t-175.5 -234.5h236zM1408 532
q132 0 215 -75t83 -193q0 -121 -83 -199.5t-210 -78.5q-128 0 -210.5 77.5t-82.5 197.5h188q0 -44 30 -73.5t75 -29.5t73.5 29.5t28.5 76.5t-31 77t-80 30h-244l-18 22l45 417h462v-170h-307l-12 -108h78z" />
    <glyph glyph-name="uni2157" unicode="&#x2157;" horiz-adv-x="1748" 
d="M1182 1495h227l-827 -1556h-227zM644 888q0 -122 -83.5 -200.5t-213.5 -78.5q-126 0 -206 77t-83 199h187q2 -46 30 -74.5t72 -28.5q47 0 76.5 30.5t29.5 79.5t-31.5 77t-84.5 28h-124v36l137 231h-272v170h538v-36l-165 -261q88 -21 140.5 -88t52.5 -161zM1398 532
q132 0 215.5 -75.5t83.5 -192.5q0 -121 -83 -199.5t-211 -78.5t-210 77.5t-82 197.5h188q0 -44 29.5 -73.5t74.5 -29.5t73.5 29.5t28.5 76.5t-30.5 77t-79.5 30h-244l-18 22l45 417h462v-170h-307l-12 -108h77z" />
    <glyph glyph-name="uni2158" unicode="&#x2158;" horiz-adv-x="1773" 
d="M1207 1495h227l-827 -1556h-227zM422 624v150h-391v35l264 625h196l-206 -492h146l38 185h141v-185h72v-168h-72v-150h-188zM1424 532q132 0 215 -75t83 -193q0 -121 -83 -199.5t-211 -78.5t-210 77.5t-82 197.5h188q0 -44 29.5 -73.5t74.5 -29.5t73.5 29.5t28.5 76.5
t-30.5 77t-79.5 30h-244l-18 22l45 417h462v-170h-307l-12 -108h78z" />
    <glyph glyph-name="uni2159" unicode="&#x2159;" horiz-adv-x="1529" 
d="M969 1495h227l-827 -1556h-227zM177 624v635h-135v175h344v-810h-209zM1214 540q119 0 196 -73.5t77 -189.5q0 -132 -88 -215t-228 -83q-142 0 -230 82.5t-88 215.5q0 119 87 270l156 263h218l-143 -238q-4 -8 -12 -21t-10 -16q26 5 65 5zM1169 153q57 0 93 34.5t36 89.5
t-36 89.5t-93 34.5q-54 0 -90 -35t-36 -89q0 -55 35.5 -89.5t90.5 -34.5z" />
    <glyph glyph-name="uni215A" unicode="&#x215a;" horiz-adv-x="1730" 
d="M1170 1495h227l-827 -1556h-227zM640 888q0 -121 -83 -200t-210 -79q-128 0 -210 78t-82 198h187q0 -44 30 -73.5t75 -29.5t73.5 29.5t28.5 76.5t-31 77t-80 30h-244l-17 22l44 417h463v-170h-307l-12 -109h77q132 0 215 -75t83 -192zM1415 540q119 0 196 -73.5
t77 -189.5q0 -133 -87.5 -215.5t-227.5 -82.5q-142 0 -230 82.5t-88 215.5q0 121 86 270l156 263h218l-143 -238q-4 -8 -12 -21t-10 -16q26 5 65 5zM1370 153q57 0 93 34.5t36 89.5t-36 89.5t-93 34.5q-54 0 -90 -35t-36 -89q0 -55 35.5 -89.5t90.5 -34.5z" />
    <glyph glyph-name="oneeighth" unicode="&#x215b;" horiz-adv-x="1570" 
d="M969 1495h227l-827 -1556h-227zM177 624v635h-135v175h344v-810h-209zM1404 440q101 -67 101 -185q0 -119 -88 -187.5t-210 -68.5t-210 68.5t-88 187.5q0 121 100 186q-79 64 -79 166q0 109 81 171t196 62t196 -62t81 -171q0 -106 -80 -167zM1209 688q-40 0 -68.5 -23
t-28.5 -63t28.5 -63.5t68.5 -23.5q39 0 67 24t28 65q0 39 -28 61.5t-67 22.5zM1209 159q47 0 78.5 26.5t31.5 74.5q0 47 -33 73.5t-80 26.5q-46 0 -78.5 -26.5t-32.5 -73.5t33 -74t81 -27z" />
    <glyph glyph-name="threeeighths" unicode="&#x215c;" horiz-adv-x="1783" 
d="M1182 1495h227l-827 -1556h-227zM644 888q0 -122 -83.5 -200.5t-213.5 -78.5q-126 0 -206 77t-83 199h187q2 -46 30 -74.5t72 -28.5q47 0 76.5 30.5t29.5 79.5t-31.5 77t-84.5 28h-124v36l137 231h-272v170h538v-36l-165 -261q88 -21 140.5 -88t52.5 -161zM1617 440
q101 -67 101 -185q0 -119 -88 -187.5t-210 -68.5t-210 68.5t-88 187.5q0 121 100 186q-79 64 -79 166q0 109 81 171t196 62t196 -62t81 -171q0 -106 -80 -167zM1422 688q-40 0 -68.5 -23t-28.5 -63t28.5 -63.5t68.5 -23.5q39 0 67 24t28 65q0 39 -28 61.5t-67 22.5z
M1422 159q47 0 78.5 26.5t31.5 74.5q0 47 -33 73.5t-81 26.5q-46 0 -78 -26.5t-32 -73.5t33 -74t81 -27z" />
    <glyph glyph-name="fiveeighths" unicode="&#x215d;" horiz-adv-x="1771" 
d="M1170 1495h227l-827 -1556h-227zM640 888q0 -121 -83 -200t-210 -79q-128 0 -210 78t-82 198h187q0 -44 30 -73.5t75 -29.5t73.5 29.5t28.5 76.5t-31 77t-80 30h-244l-17 22l44 417h463v-170h-307l-12 -109h77q132 0 215 -75t83 -192zM1605 440q101 -67 101 -185
q0 -119 -88 -187.5t-210 -68.5t-210 68.5t-88 187.5q0 121 100 186q-79 64 -79 166q0 109 81 171t196 62t196.5 -62t81.5 -171q0 -106 -81 -167zM1410 688q-40 0 -68.5 -23t-28.5 -63t28.5 -63.5t68.5 -23.5q39 0 67 24t28 65q0 39 -28 61.5t-67 22.5zM1410 159
q47 0 78.5 26.5t31.5 74.5q0 47 -33 73.5t-80 26.5q-46 0 -78.5 -26.5t-32.5 -73.5t33 -74t81 -27z" />
    <glyph glyph-name="seveneighths" unicode="&#x215e;" horiz-adv-x="1640" 
d="M1039 1495h227l-827 -1556h-227zM316 624h-199l238 628h-309v183h568v-24zM1473 440q102 -68 102 -185q0 -119 -88 -187.5t-210 -68.5t-210 68.5t-88 187.5q0 121 100 186q-80 65 -80 166q0 109 81.5 171t196.5 62t196 -62t81 -171q0 -106 -81 -167zM1279 688
q-40 0 -68.5 -23t-28.5 -63t28.5 -63.5t68.5 -23.5q39 0 67 24t28 65q0 39 -28 61.5t-67 22.5zM1279 159q47 0 78.5 26.5t31.5 74.5q0 47 -33 73.5t-81 26.5q-46 0 -78 -26.5t-32 -73.5t33 -74t81 -27z" />
    <glyph glyph-name="uni215F" unicode="&#x215f;" horiz-adv-x="843" 
d="M969 1495h227l-827 -1556h-227zM177 624v635h-135v175h344v-810h-209z" />
    <glyph glyph-name="uni2189" unicode="&#x2189;" horiz-adv-x="1863" 
d="M1286 1495h227l-827 -1556h-227zM742 1033q0 -196 -91 -309t-247 -113t-247.5 113.5t-91.5 308.5q0 194 91 307t248 113t247.5 -113t90.5 -307zM404 804q63 0 98 58.5t35 168.5q0 109 -35 169t-98 60t-98 -59.5t-35 -167.5q0 -109 35 -169t98 -60zM1612 513
q88 -21 140.5 -88t52.5 -161q0 -121 -84 -199.5t-214 -78.5q-126 0 -206 76.5t-83 198.5h187q2 -46 30 -74.5t72 -28.5q47 0 77 31t30 80q0 48 -31.5 76t-85.5 28h-124v37l138 230h-273v170h538v-36z" />
    <glyph glyph-name="arrowleft" unicode="&#x2190;" horiz-adv-x="1339" 
d="M1266 812v-265h-750l285 -293l-186 -163l-555 575v28l555 575l186 -163l-285 -294h750z" />
    <glyph glyph-name="arrowup" unicode="&#x2191;" horiz-adv-x="1273" 
d="M1225 791l-163 -186l-293 284v-750h-265v750l-293 -284l-163 186l575 555h28z" />
    <glyph glyph-name="arrowright" unicode="&#x2192;" horiz-adv-x="1339" 
d="M724 1269l555 -575v-28l-555 -575l-185 163l284 293h-750v265h750l-284 294z" />
    <glyph glyph-name="arrowdown" unicode="&#x2193;" horiz-adv-x="1273" 
d="M1062 853l163 -185l-574 -555h-28l-575 555l163 185l293 -284v750h265v-750z" />
    <glyph glyph-name="uni2196" unicode="&#x2196;" horiz-adv-x="1210" 
d="M1160 349l-188 -188l-594 602v-409h-243v814l25 26h815v-243h-410z" />
    <glyph glyph-name="uni2197" unicode="&#x2197;" horiz-adv-x="1210" 
d="M1050 1194l26 -26v-814h-243v409l-595 -602l-187 188l595 602h-410v243h814z" />
    <glyph glyph-name="uni2198" unicode="&#x2198;" horiz-adv-x="1249" 
d="M835 991h242v-814l-25 -25h-814v242h410l-595 603l187 187l595 -602v409z" />
    <glyph glyph-name="uni2199" unicode="&#x2199;" horiz-adv-x="1249" 
d="M1197 997l-595 -603h410v-242h-814l-26 25v814h243v-409l595 602z" />
    <glyph glyph-name="partialdiff" unicode="&#x2202;" horiz-adv-x="1308" 
d="M545 1465q325 0 496.5 -162t171.5 -494q0 -189 -41 -344q-62 -238 -223 -366.5t-403 -128.5q-120 0 -216 37.5t-155 102.5t-89.5 146.5t-30.5 173.5q0 84 24.5 166t75 155t120 128.5t167 88t208.5 32.5q167 0 286 -94q-14 163 -122.5 234t-295.5 71q-91 0 -236 -19v250
q153 23 263 23zM582 230q129 0 217.5 88.5t88.5 217.5q0 98 -65.5 160.5t-168.5 62.5q-128 0 -217.5 -88t-89.5 -215q0 -101 65 -163.5t170 -62.5z" />
    <glyph glyph-name="emptyset" unicode="&#x2205;" horiz-adv-x="1376" 
d="M1083 973q97 -77 150.5 -189.5t53.5 -245.5q0 -241 -165 -401.5t-412 -160.5q-111 0 -222 42l-61 -97h-268l135 214q-98 78 -152 190.5t-54 244.5q0 118 44.5 222t121.5 178t184 117t229 43q117 0 219 -39l60 98h266zM665 857q-125 0 -203 -79.5t-78 -207.5
q0 -118 67 -196l295 474q-38 9 -81 9zM710 249q124 0 203 80t79 209q0 116 -65 194l-293 -474q36 -9 76 -9z" />
    <glyph glyph-name="product" unicode="&#x220f;" horiz-adv-x="1513" 
d="M1438 1434v-288h-172v-1474h-317v1474h-385v-1474h-318v1474h-172v288h1364z" />
    <glyph glyph-name="summation" unicode="&#x2211;" horiz-adv-x="1255" 
d="M578 -42h581v-288h-1101v48l554 847l-554 820v49h1094v-286h-572l386 -563v-37z" />
    <glyph glyph-name="minus" unicode="&#x2212;" horiz-adv-x="1253" 
d="M135 541v275h983v-275h-983z" />
    <glyph glyph-name="radical" unicode="&#x221a;" horiz-adv-x="1419" 
d="M669 0l-348 831h-288v254h462l234 -573l427 1024h293l-663 -1536h-117z" />
    <glyph glyph-name="infinity" unicode="&#x221e;" horiz-adv-x="1955" 
d="M1430 1101q184 0 309 -117t125 -298t-125 -298t-309 -117q-73 0 -138 20t-121.5 58.5t-100 78.5t-92.5 96q-50 -57 -93.5 -97t-100 -78.5t-121.5 -58t-138 -19.5q-184 0 -309 118t-125 297q0 182 125 298.5t309 116.5q59 0 114 -14t99 -36.5t88.5 -57t78.5 -68t73 -77.5
q50 57 92.5 96.5t99 78t122 58.5t138.5 20zM542 510q82 0 152.5 45.5t145.5 130.5q-75 84 -145.5 130t-152.5 46q-86 0 -138 -48t-52 -128t51.5 -128t138.5 -48zM1415 510q87 0 137 47.5t50 128.5q0 80 -50 128t-137 48q-84 0 -151.5 -43.5t-146.5 -132.5q76 -85 146 -130.5
t152 -45.5z" />
    <glyph glyph-name="integral" unicode="&#x222b;" horiz-adv-x="835" 
d="M-3 -632v271h75q198 0 198 198v1676q0 188 107.5 296t294.5 108h165v-271h-75q-196 0 -196 -197v-1675q0 -188 -108 -297t-296 -109h-165z" />
    <glyph glyph-name="approxequal" unicode="&#x2248;" horiz-adv-x="1224" 
d="M802 722q-74 0 -130.5 23t-119.5 66q-74 51 -114 51t-68.5 -30.5t-28.5 -76.5v-29h-211v37q0 165 81.5 261.5t224.5 96.5q72 0 126 -23t110 -66q42 -30 69 -43t57 -13q43 0 70 30.5t27 78.5v32h209v-36q0 -167 -81 -263t-221 -96zM803 233q-74 0 -130 23t-120 67
q-73 50 -114 50q-40 0 -68.5 -30t-28.5 -76v-29h-211v36q0 165 81.5 262t224.5 97q72 0 125.5 -23.5t110.5 -66.5q42 -30 69 -43t57 -13q43 0 70 31t27 79v32h209v-36q0 -167 -81 -263.5t-221 -96.5z" />
    <glyph glyph-name="notequal" unicode="&#x2260;" horiz-adv-x="1253" 
d="M1118 765h-355l-44 -176h399v-275h-468l-62 -246h-241l62 246h-274v275h343l44 176h-387v274h456l63 250h241l-63 -250h286v-274z" />
    <glyph glyph-name="lessequal" unicode="&#x2264;" horiz-adv-x="1128" 
d="M992 618v-283l-915 461v116l915 471v-277l-483 -250zM118 263h880v-263h-880v263z" />
    <glyph glyph-name="greaterequal" unicode="&#x2265;" horiz-adv-x="1128" 
d="M136 1383l915 -471v-116l-915 -461v283l483 238l-483 250v277zM129 0v263h881v-263h-881z" />
    <glyph glyph-name="lozenge" unicode="&#x25ca;" horiz-adv-x="1136" 
d="M549 0l-485 699v39l485 696h38l485 -696v-39l-485 -699h-38zM568 352l256 367l-256 364l-256 -366z" />
    <glyph glyph-name="K.ss01" horiz-adv-x="1341" 
d="M1359 0h-378l-507 701v-701h-310v1434h310v-664l470 664h362l-492 -690z" />
    <glyph glyph-name="K.ss03" horiz-adv-x="1341" 
d="M1359 0h-378l-507 701v-701h-310v1434h310v-664l470 664h362l-492 -690z" />
    <glyph glyph-name="K.ss04" horiz-adv-x="1341" 
d="M1359 0h-378l-507 701v-701h-310v1434h310v-664l470 664h362l-492 -690z" />
    <glyph glyph-name="germandbls.calt" horiz-adv-x="1490" 
d="M1088 930q152 -47 238.5 -163.5t86.5 -277.5q0 -216 -147.5 -352.5t-395.5 -136.5h-194v291h194q99 0 162 57.5t63 146.5q0 93 -61.5 150t-163.5 57h-160v47l186 396h-225q-99 0 -150 -51t-51 -150v-944h-317v973q0 208 126.5 334.5t335.5 126.5h686v-49z" />
    <glyph glyph-name="i.loclTRK" horiz-adv-x="585" 
d="M144 1248v283h298v-283h-298zM144 0v1106h299v-1106h-299z" />
    <glyph glyph-name="k.ss01" horiz-adv-x="1144" 
d="M1159 0h-361l-355 529v-529h-299v1505h299v-891l335 492h341l-375 -529z" />
    <glyph glyph-name="k.ss03" horiz-adv-x="1144" 
d="M1159 0h-361l-355 529v-529h-299v1505h299v-891l335 492h341l-375 -529z" />
    <glyph glyph-name="k.ss04" horiz-adv-x="1144" 
d="M1159 0h-361l-355 529v-529h-299v1505h299v-891l335 492h341l-375 -529z" />
    <glyph glyph-name="uni0414.loclBGR" horiz-adv-x="1550" 
d="M1374 288h117v-540h-286v252h-860v-252h-286v540h109l452 1146h292zM767 1020l-282 -732h563z" />
    <glyph glyph-name="uni041B.loclBGR" horiz-adv-x="1419" 
d="M1396 0h-336l-350 1024l-362 -1024h-326l541 1434h293z" />
    <glyph glyph-name="uni0416.ss01" horiz-adv-x="1990" 
d="M2004 0h-367l-495 695v-695h-310v698l-480 -698h-363l522 746l-467 688h356l432 -660v660h310v-657l447 657h357l-477 -688z" />
    <glyph glyph-name="uni041A.ss01" horiz-adv-x="1341" 
d="M1359 0h-378l-507 701v-701h-310v1434h310v-664l470 664h362l-492 -690z" />
    <glyph glyph-name="uni0424.ss01" horiz-adv-x="1835" 
d="M1752 721q0 -110 -27 -214t-83.5 -196.5t-136 -164.5t-191.5 -118t-244 -56v-217h-303v217q-163 12 -295.5 79.5t-216 171t-128 230t-44.5 262.5q0 137 44.5 264t128 231t216 172t295.5 80v187h303v-187q132 -10 244 -55t191.5 -116t136 -162.5t83.5 -195t27 -212.5z
M1066 260q175 24 274 155.5t99 301.5q0 168 -99 298t-274 154v-909zM397 717q0 -170 99 -301t274 -155v908q-175 -24 -274 -154t-99 -298z" />
    <glyph glyph-name="uni0414.ss02" horiz-adv-x="1550" 
d="M1374 288h117v-540h-286v252h-860v-252h-286v540h109l452 1146h292zM767 1020l-282 -732h563z" />
    <glyph glyph-name="uni041B.ss02" horiz-adv-x="1419" 
d="M1396 0h-336l-350 1024l-362 -1024h-326l541 1434h293z" />
    <glyph glyph-name="uni0414.ss03" horiz-adv-x="1550" 
d="M1374 288h117v-540h-286v252h-860v-252h-286v540h109l452 1146h292zM767 1020l-282 -732h563z" />
    <glyph glyph-name="uni0416.ss03" horiz-adv-x="1990" 
d="M2004 0h-367l-495 695v-695h-310v698l-480 -698h-363l522 746l-467 688h356l432 -660v660h310v-657l447 657h357l-477 -688z" />
    <glyph glyph-name="uni041A.ss03" horiz-adv-x="1341" 
d="M1359 0h-378l-507 701v-701h-310v1434h310v-664l470 664h362l-492 -690z" />
    <glyph glyph-name="uni041B.ss03" horiz-adv-x="1419" 
d="M1396 0h-336l-350 1024l-362 -1024h-326l541 1434h293z" />
    <glyph glyph-name="uni0416.ss04" horiz-adv-x="1990" 
d="M2004 0h-367l-495 695v-695h-310v698l-480 -698h-363l522 746l-467 688h356l432 -660v660h310v-657l447 657h357l-477 -688z" />
    <glyph glyph-name="uni041A.ss04" horiz-adv-x="1341" 
d="M1359 0h-378l-507 701v-701h-310v1434h310v-664l470 664h362l-492 -690z" />
    <glyph glyph-name="uni0424.ss04" horiz-adv-x="1720" 
d="M1016 1368q151 -12 273.5 -71t199.5 -148.5t118 -199t41 -227.5q0 -117 -41 -225.5t-118 -197.5t-199 -147.5t-273 -70.5v-158h-313v158q-151 12 -273 71t-199 147.5t-118 197t-41 225.5q0 118 41 227.5t118 199t199.5 148.5t273.5 71v141h311v-141zM391 722
q0 -139 86 -242t237 -115v724q-101 -12 -176 -67t-111 -133t-36 -167zM1007 365q152 12 237.5 114.5t85.5 242.5q0 138 -85.5 244t-237.5 123v-724z" />
    <glyph glyph-name="uni0424.ss05" horiz-adv-x="1720" 
d="M1016 1368q151 -12 273.5 -71t199.5 -148.5t118 -199t41 -227.5q0 -117 -41 -225.5t-118 -197.5t-199 -147.5t-273 -70.5v-158h-313v158q-151 12 -273 71t-199 147.5t-118 197t-41 225.5q0 118 41 227.5t118 199t199.5 148.5t273.5 71v141h311v-141zM391 722
q0 -139 86 -242t237 -115v724q-101 -12 -176 -67t-111 -133t-36 -167zM1007 365q152 12 237.5 114.5t85.5 242.5q0 138 -85.5 244t-237.5 123v-724z" />
    <glyph glyph-name="uni0432.loclBGR" horiz-adv-x="1275" 
d="M995 797q100 -55 154 -148.5t54 -209.5q0 -139 -72.5 -246.5t-194.5 -164t-272 -56.5q-252 0 -397 155t-145 419v428q0 257 144 407t390 150q212 0 349.5 -119t137.5 -303q0 -187 -148 -312zM656 1278q-118 0 -181 -77t-63 -228v-66h242q103 0 162 50.5t59 136.5
q0 85 -59 134.5t-160 49.5zM661 243q113 0 181.5 57t68.5 151q0 91 -65.5 145t-174.5 54h-259v-104q0 -303 249 -303z" />
    <glyph glyph-name="uni0433.loclBGR" horiz-adv-x="1064" 
d="M535 -30q-210 0 -338 96t-128 253q0 43 8.5 80t20.5 65.5t35 53.5t43 42.5t53 34t55.5 26t61.5 20.5t60.5 16t61.5 14q131 29 171 51q54 29 54 78q0 46 -42 74t-114 28q-75 0 -115.5 -36t-40.5 -105h-267q-1 175 114 275t307 100q196 0 317 -93t121 -243q0 -75 -26 -132
t-59.5 -89.5t-95 -58.5t-101 -36t-110.5 -24q-53 -10 -85 -18.5t-66 -23t-50 -36t-16 -50.5q0 -50 47.5 -80t123.5 -30q82 0 127.5 40.5t45.5 113.5h286q0 -185 -127 -295.5t-332 -110.5z" />
    <glyph glyph-name="uni0434.loclBGR" horiz-adv-x="1374" 
d="M1036 1106h194v-978q0 -259 -151 -408.5t-414 -149.5q-225 0 -375 108t-188 298h297q24 -71 98.5 -110.5t162.5 -39.5q117 0 197 70.5t80 188.5v42q-141 -99 -316 -99q-152 0 -278.5 73t-199 200.5t-72.5 280.5q0 152 72.5 279.5t199 201.5t278.5 74q215 0 367 -141z
M656 295q122 0 202 81.5t80 205.5q0 123 -79.5 203.5t-202.5 80.5q-122 0 -202 -80.5t-80 -203.5q0 -124 79.5 -205.5t202.5 -81.5z" />
    <glyph glyph-name="uni0436.loclBGR" horiz-adv-x="1691" 
d="M1704 0h-344l-377 512v-512h-288v509l-362 -509h-342l416 576l-373 530h337l324 -479v878h288v-882l338 483h339l-384 -529z" />
    <glyph glyph-name="uni0437.loclBGR" horiz-adv-x="1175" 
d="M908 402q97 -61 150 -156.5t53 -209.5q0 -201 -151.5 -333.5t-380.5 -132.5q-231 0 -376.5 134.5t-148.5 350.5h287q3 -90 69.5 -146t168.5 -56q101 0 166.5 57t65.5 147q0 87 -64.5 141.5t-166.5 54.5h-172v273h161q79 0 132.5 46t53.5 117q0 74 -53 120.5t-137 46.5
q-83 0 -137 -47t-56 -121h-289q2 198 136 323.5t346 125.5q210 0 349.5 -121t139.5 -305q0 -181 -146 -309z" />
    <glyph glyph-name="uni0438.loclBGR" horiz-adv-x="1312" 
d="M871 1106h299v-1106h-217l-50 133q-64 -75 -158.5 -117t-204.5 -42q-188 0 -299 125.5t-111 336.5v670h300v-622q0 -248 192 -248q115 0 182 77.5t67 211.5v581z" />
    <glyph glyph-name="uni0439.loclBGR" horiz-adv-x="1312" 
d="M931 1484v-220h-564v220h564zM871 1106h299v-1106h-217l-50 133q-64 -75 -158.5 -117t-204.5 -42q-188 0 -299 125.5t-111 336.5v670h300v-622q0 -248 192 -248q115 0 182 77.5t67 211.5v581z" />
    <glyph glyph-name="uni043A.loclBGR" horiz-adv-x="1175" 
d="M1186 0h-362l-354 529v-529h-299v1505h299v-890l332 491h344l-374 -527z" />
    <glyph glyph-name="uni043B.loclBGR" horiz-adv-x="1132" 
d="M1111 0h-303l-242 718l-247 -718h-299l408 1106h277z" />
    <glyph glyph-name="uni043F.loclBGR" horiz-adv-x="1312" 
d="M773 1132q188 0 299 -125.5t111 -336.5v-670h-299v622q0 248 -193 248q-115 0 -181.5 -77.5t-66.5 -211.5v-581h-299v1106h205l58 -137q64 76 159.5 119.5t206.5 43.5z" />
    <glyph glyph-name="uni0442.loclBGR" horiz-adv-x="1921" 
d="M1402 1132q172 0 280.5 -122t108.5 -316v-694h-299v644q0 111 -42.5 168.5t-123.5 57.5q-100 0 -156.5 -71.5t-56.5 -200.5v-598h-291v644q0 111 -41.5 168.5t-121.5 57.5q-102 0 -159 -71.5t-57 -200.5v-598h-299v1106h208l56 -137q59 75 146.5 119t183.5 44
q105 0 189 -46.5t132 -130.5q58 82 148.5 129.5t194.5 47.5z" />
    <glyph glyph-name="uni0446.loclBGR" horiz-adv-x="1404" 
d="M1170 410q0 -111 45.5 -164.5t138.5 -53.5v-446h-275v284q-100 29 -152 136q-65 -89 -168 -140.5t-223 -51.5q-186 0 -296 126.5t-110 338.5v667h300v-618q0 -252 199 -252q113 0 177.5 77.5t64.5 214.5v578h299v-696z" />
    <glyph glyph-name="uni0448.loclBGR" horiz-adv-x="1921" 
d="M1479 1106h299v-1106h-210l-56 138q-60 -76 -147.5 -120t-184.5 -44q-101 0 -183.5 48.5t-131.5 133.5q-58 -84 -150 -133t-198 -49q-170 0 -278.5 121.5t-108.5 310.5v700h300v-646q0 -115 40.5 -169.5t125.5 -54.5q101 0 156.5 70t55.5 200v600h292v-646
q0 -224 163 -224q100 0 158 72t58 198v600z" />
    <glyph glyph-name="uni0449.loclBGR" horiz-adv-x="2013" 
d="M1778 410q0 -218 184 -218v-446h-274v283q-49 16 -89 52t-65 87q-59 -88 -153.5 -141t-200.5 -53q-101 0 -183.5 49t-131.5 135q-58 -85 -150 -134.5t-198 -49.5q-170 0 -278.5 122.5t-108.5 314.5v695h300v-646q0 -115 40.5 -169.5t125.5 -54.5q101 0 156.5 70t55.5 200
v600h292v-646q0 -224 163 -224q100 0 158 72t58 198v600h299v-696z" />
    <glyph glyph-name="uni044E.loclBGR" horiz-adv-x="1794" 
d="M1129 1137q167 0 303.5 -75.5t214 -209.5t77.5 -299q0 -164 -77.5 -298t-213.5 -210t-304 -76q-213 0 -366.5 123.5t-196.5 322.5h-128v-415h-294v1496h294v-805h128q43 199 196 322.5t367 123.5zM1129 250q128 0 210 85t82 218q0 134 -82 218.5t-210 84.5t-209.5 -84.5
t-81.5 -218.5q0 -133 81.5 -218t209.5 -85z" />
    <glyph glyph-name="uni0436.ss01" horiz-adv-x="1687" 
d="M1702 0h-344l-377 512v-512h-288v509l-362 -509h-342l412 575l-370 531h338l324 -479v479h288v-483l338 483h338l-378 -529z" />
    <glyph glyph-name="uni043A.ss01" horiz-adv-x="1146" 
d="M1160 0h-358l-359 533v-533h-299v1106h299v-495l339 495h337l-375 -529z" />
    <glyph glyph-name="uni0432.ss02" horiz-adv-x="1275" 
d="M995 797q100 -55 154 -148.5t54 -209.5q0 -139 -72.5 -246.5t-194.5 -164t-272 -56.5q-252 0 -397 155t-145 419v428q0 257 144 407t390 150q212 0 349.5 -119t137.5 -303q0 -187 -148 -312zM656 1278q-118 0 -181 -77t-63 -228v-66h242q103 0 162 50.5t59 136.5
q0 85 -59 134.5t-160 49.5zM661 243q113 0 181.5 57t68.5 151q0 91 -65.5 145t-174.5 54h-259v-104q0 -303 249 -303z" />
    <glyph glyph-name="uni0433.ss02" horiz-adv-x="1064" 
d="M535 -30q-210 0 -338 96t-128 253q0 43 8.5 80t20.5 65.5t35 53.5t43 42.5t53 34t55.5 26t61.5 20.5t60.5 16t61.5 14q131 29 171 51q54 29 54 78q0 46 -42 74t-114 28q-75 0 -115.5 -36t-40.5 -105h-267q-1 175 114 275t307 100q196 0 317 -93t121 -243q0 -75 -26 -132
t-59.5 -89.5t-95 -58.5t-101 -36t-110.5 -24q-53 -10 -85 -18.5t-66 -23t-50 -36t-16 -50.5q0 -50 47.5 -80t123.5 -30q82 0 127.5 40.5t45.5 113.5h286q0 -185 -127 -295.5t-332 -110.5z" />
    <glyph glyph-name="uni0434.ss02" horiz-adv-x="1374" 
d="M1036 1106h194v-978q0 -259 -151 -408.5t-414 -149.5q-225 0 -375 108t-188 298h297q24 -71 98.5 -110.5t162.5 -39.5q117 0 197 70.5t80 188.5v42q-141 -99 -316 -99q-152 0 -278.5 73t-199 200.5t-72.5 280.5q0 152 72.5 279.5t199 201.5t278.5 74q215 0 367 -141z
M656 295q122 0 202 81.5t80 205.5q0 123 -79.5 203.5t-202.5 80.5q-122 0 -202 -80.5t-80 -203.5q0 -124 79.5 -205.5t202.5 -81.5z" />
    <glyph glyph-name="uni0436.ss02" horiz-adv-x="1691" 
d="M1704 0h-344l-377 512v-512h-288v509l-362 -509h-342l416 576l-373 530h337l324 -479v878h288v-882l338 483h339l-384 -529z" />
    <glyph glyph-name="uni0437.ss02" horiz-adv-x="1175" 
d="M908 402q97 -61 150 -156.5t53 -209.5q0 -201 -151.5 -333.5t-380.5 -132.5q-231 0 -376.5 134.5t-148.5 350.5h287q3 -90 69.5 -146t168.5 -56q101 0 166.5 57t65.5 147q0 87 -64.5 141.5t-166.5 54.5h-172v273h161q79 0 132.5 46t53.5 117q0 74 -53 120.5t-137 46.5
q-83 0 -137 -47t-56 -121h-289q2 198 136 323.5t346 125.5q210 0 349.5 -121t139.5 -305q0 -181 -146 -309z" />
    <glyph glyph-name="uni0438.ss02" horiz-adv-x="1312" 
d="M871 1106h299v-1106h-217l-50 133q-64 -75 -158.5 -117t-204.5 -42q-188 0 -299 125.5t-111 336.5v670h300v-622q0 -248 192 -248q115 0 182 77.5t67 211.5v581z" />
    <glyph glyph-name="uni0439.ss02" horiz-adv-x="1312" 
d="M931 1484v-220h-564v220h564zM871 1106h299v-1106h-217l-50 133q-64 -75 -158.5 -117t-204.5 -42q-188 0 -299 125.5t-111 336.5v670h300v-622q0 -248 192 -248q115 0 182 77.5t67 211.5v581z" />
    <glyph glyph-name="uni043A.ss02" horiz-adv-x="1175" 
d="M1186 0h-362l-354 529v-529h-299v1505h299v-890l332 491h344l-374 -527z" />
    <glyph glyph-name="uni043B.ss02" horiz-adv-x="1132" 
d="M1111 0h-303l-242 718l-247 -718h-299l408 1106h277z" />
    <glyph glyph-name="uni043F.ss02" horiz-adv-x="1312" 
d="M773 1132q188 0 299 -125.5t111 -336.5v-670h-299v622q0 248 -193 248q-115 0 -181.5 -77.5t-66.5 -211.5v-581h-299v1106h205l58 -137q64 76 159.5 119.5t206.5 43.5z" />
    <glyph glyph-name="uni0442.ss02" horiz-adv-x="1921" 
d="M1402 1132q172 0 280.5 -122t108.5 -316v-694h-299v644q0 111 -42.5 168.5t-123.5 57.5q-100 0 -156.5 -71.5t-56.5 -200.5v-598h-291v644q0 111 -41.5 168.5t-121.5 57.5q-102 0 -159 -71.5t-57 -200.5v-598h-299v1106h208l56 -137q59 75 146.5 119t183.5 44
q105 0 189 -46.5t132 -130.5q58 82 148.5 129.5t194.5 47.5z" />
    <glyph glyph-name="uni0446.ss02" horiz-adv-x="1404" 
d="M1170 410q0 -111 45.5 -164.5t138.5 -53.5v-446h-275v284q-100 29 -152 136q-65 -89 -168 -140.5t-223 -51.5q-186 0 -296 126.5t-110 338.5v667h300v-618q0 -252 199 -252q113 0 177.5 77.5t64.5 214.5v578h299v-696z" />
    <glyph glyph-name="uni0448.ss02" horiz-adv-x="1921" 
d="M1479 1106h299v-1106h-210l-56 138q-60 -76 -147.5 -120t-184.5 -44q-101 0 -183.5 48.5t-131.5 133.5q-58 -84 -150 -133t-198 -49q-170 0 -278.5 121.5t-108.5 310.5v700h300v-646q0 -115 40.5 -169.5t125.5 -54.5q101 0 156.5 70t55.5 200v600h292v-646
q0 -224 163 -224q100 0 158 72t58 198v600z" />
    <glyph glyph-name="uni0449.ss02" horiz-adv-x="2013" 
d="M1778 410q0 -218 184 -218v-446h-274v283q-49 16 -89 52t-65 87q-59 -88 -153.5 -141t-200.5 -53q-101 0 -183.5 49t-131.5 135q-58 -85 -150 -134.5t-198 -49.5q-170 0 -278.5 122.5t-108.5 314.5v695h300v-646q0 -115 40.5 -169.5t125.5 -54.5q101 0 156.5 70t55.5 200
v600h292v-646q0 -224 163 -224q100 0 158 72t58 198v600h299v-696z" />
    <glyph glyph-name="uni044E.ss02" horiz-adv-x="1794" 
d="M1129 1137q167 0 303.5 -75.5t214 -209.5t77.5 -299q0 -164 -77.5 -298t-213.5 -210t-304 -76q-213 0 -366.5 123.5t-196.5 322.5h-128v-415h-294v1496h294v-805h128q43 199 196 322.5t367 123.5zM1129 250q128 0 210 85t82 218q0 134 -82 218.5t-210 84.5t-209.5 -84.5
t-81.5 -218.5q0 -133 81.5 -218t209.5 -85z" />
    <glyph glyph-name="uni0432.ss03" horiz-adv-x="1275" 
d="M995 797q100 -55 154 -148.5t54 -209.5q0 -139 -72.5 -246.5t-194.5 -164t-272 -56.5q-252 0 -397 155t-145 419v428q0 257 144 407t390 150q212 0 349.5 -119t137.5 -303q0 -187 -148 -312zM656 1278q-118 0 -181 -77t-63 -228v-66h242q103 0 162 50.5t59 136.5
q0 85 -59 134.5t-160 49.5zM661 243q113 0 181.5 57t68.5 151q0 91 -65.5 145t-174.5 54h-259v-104q0 -303 249 -303z" />
    <glyph glyph-name="uni0433.ss03" horiz-adv-x="1064" 
d="M535 -30q-210 0 -338 96t-128 253q0 43 8.5 80t20.5 65.5t35 53.5t43 42.5t53 34t55.5 26t61.5 20.5t60.5 16t61.5 14q131 29 171 51q54 29 54 78q0 46 -42 74t-114 28q-75 0 -115.5 -36t-40.5 -105h-267q-1 175 114 275t307 100q196 0 317 -93t121 -243q0 -75 -26 -132
t-59.5 -89.5t-95 -58.5t-101 -36t-110.5 -24q-53 -10 -85 -18.5t-66 -23t-50 -36t-16 -50.5q0 -50 47.5 -80t123.5 -30q82 0 127.5 40.5t45.5 113.5h286q0 -185 -127 -295.5t-332 -110.5z" />
    <glyph glyph-name="uni0434.ss03" horiz-adv-x="1374" 
d="M1036 1106h194v-978q0 -259 -151 -408.5t-414 -149.5q-225 0 -375 108t-188 298h297q24 -71 98.5 -110.5t162.5 -39.5q117 0 197 70.5t80 188.5v42q-141 -99 -316 -99q-152 0 -278.5 73t-199 200.5t-72.5 280.5q0 152 72.5 279.5t199 201.5t278.5 74q215 0 367 -141z
M656 295q122 0 202 81.5t80 205.5q0 123 -79.5 203.5t-202.5 80.5q-122 0 -202 -80.5t-80 -203.5q0 -124 79.5 -205.5t202.5 -81.5z" />
    <glyph glyph-name="uni0436.ss03" horiz-adv-x="1687" 
d="M1702 0h-344l-377 512v-512h-288v509l-362 -509h-342l412 575l-370 531h338l324 -479v878h288v-882l338 483h338l-378 -529z" />
    <glyph glyph-name="uni0437.ss03" horiz-adv-x="1175" 
d="M908 402q97 -61 150 -156.5t53 -209.5q0 -201 -151.5 -333.5t-380.5 -132.5q-231 0 -376.5 134.5t-148.5 350.5h287q3 -90 69.5 -146t168.5 -56q101 0 166.5 57t65.5 147q0 87 -64.5 141.5t-166.5 54.5h-172v273h161q79 0 132.5 46t53.5 117q0 74 -53 120.5t-137 46.5
q-83 0 -137 -47t-56 -121h-289q2 198 136 323.5t346 125.5q210 0 349.5 -121t139.5 -305q0 -181 -146 -309z" />
    <glyph glyph-name="uni0438.ss03" horiz-adv-x="1312" 
d="M871 1106h299v-1106h-217l-50 133q-64 -75 -158.5 -117t-204.5 -42q-188 0 -299 125.5t-111 336.5v670h300v-622q0 -248 192 -248q115 0 182 77.5t67 211.5v581z" />
    <glyph glyph-name="uni0439.ss03" horiz-adv-x="1312" 
d="M931 1484v-220h-564v220h564zM871 1106h299v-1106h-217l-50 133q-64 -75 -158.5 -117t-204.5 -42q-188 0 -299 125.5t-111 336.5v670h300v-622q0 -248 192 -248q115 0 182 77.5t67 211.5v581z" />
    <glyph glyph-name="uni043A.ss03" horiz-adv-x="1146" 
d="M1160 0h-358l-359 533v-533h-299v1505h299v-894l339 495h337l-375 -529z" />
    <glyph glyph-name="uni043B.ss03" horiz-adv-x="1132" 
d="M1111 0h-303l-242 718l-247 -718h-299l408 1106h277z" />
    <glyph glyph-name="uni043F.ss03" horiz-adv-x="1312" 
d="M773 1132q188 0 299 -125.5t111 -336.5v-670h-299v622q0 248 -193 248q-115 0 -181.5 -77.5t-66.5 -211.5v-581h-299v1106h205l58 -137q64 76 159.5 119.5t206.5 43.5z" />
    <glyph glyph-name="uni0442.ss03" horiz-adv-x="1921" 
d="M1402 1132q172 0 280.5 -122t108.5 -316v-694h-299v644q0 111 -42.5 168.5t-123.5 57.5q-100 0 -156.5 -71.5t-56.5 -200.5v-598h-291v644q0 111 -41.5 168.5t-121.5 57.5q-102 0 -159 -71.5t-57 -200.5v-598h-299v1106h208l56 -137q59 75 146.5 119t183.5 44
q105 0 189 -46.5t132 -130.5q58 82 148.5 129.5t194.5 47.5z" />
    <glyph glyph-name="uni0446.ss03" horiz-adv-x="1404" 
d="M1170 410q0 -111 45.5 -164.5t138.5 -53.5v-446h-275v284q-100 29 -152 136q-65 -89 -168 -140.5t-223 -51.5q-186 0 -296 126.5t-110 338.5v667h300v-618q0 -252 199 -252q113 0 177.5 77.5t64.5 214.5v578h299v-696z" />
    <glyph glyph-name="uni0448.ss03" horiz-adv-x="1921" 
d="M1479 1106h299v-1106h-210l-56 138q-60 -76 -147.5 -120t-184.5 -44q-101 0 -183.5 48.5t-131.5 133.5q-58 -84 -150 -133t-198 -49q-170 0 -278.5 121.5t-108.5 310.5v700h300v-646q0 -115 40.5 -169.5t125.5 -54.5q101 0 156.5 70t55.5 200v600h292v-646
q0 -224 163 -224q100 0 158 72t58 198v600z" />
    <glyph glyph-name="uni0449.ss03" horiz-adv-x="2013" 
d="M1778 410q0 -218 184 -218v-446h-274v283q-49 16 -89 52t-65 87q-59 -88 -153.5 -141t-200.5 -53q-101 0 -183.5 49t-131.5 135q-58 -85 -150 -134.5t-198 -49.5q-170 0 -278.5 122.5t-108.5 314.5v695h300v-646q0 -115 40.5 -169.5t125.5 -54.5q101 0 156.5 70t55.5 200
v600h292v-646q0 -224 163 -224q100 0 158 72t58 198v600h299v-696z" />
    <glyph glyph-name="uni044E.ss03" horiz-adv-x="1794" 
d="M1129 1137q167 0 303.5 -75.5t214 -209.5t77.5 -299q0 -164 -77.5 -298t-213.5 -210t-304 -76q-213 0 -366.5 123.5t-196.5 322.5h-128v-415h-294v1496h294v-805h128q43 199 196 322.5t367 123.5zM1129 250q128 0 210 85t82 218q0 134 -82 218.5t-210 84.5t-209.5 -84.5
t-81.5 -218.5q0 -133 81.5 -218t209.5 -85z" />
    <glyph glyph-name="uni0436.ss04" horiz-adv-x="1687" 
d="M1702 0h-344l-377 512v-512h-288v509l-362 -509h-342l412 575l-370 531h338l324 -479v479h288v-483l338 483h338l-378 -529z" />
    <glyph glyph-name="uni043A.ss04" horiz-adv-x="1146" 
d="M1160 0h-358l-359 533v-533h-299v1106h299v-495l339 495h337l-375 -529z" />
    <glyph glyph-name="zero.sinf" horiz-adv-x="806" 
d="M404 -172q-156 0 -247.5 113.5t-91.5 308.5q0 194 91 307.5t248 113.5t247.5 -113.5t90.5 -307.5q0 -196 -91 -309t-247 -113zM404 21q63 0 98 59t35 169q0 109 -35 169t-98 60t-98 -59.5t-35 -168.5t35 -169t98 -60z" />
    <glyph glyph-name="one.sinf" horiz-adv-x="491" 
d="M42 651h344v-810h-209v635h-135v175z" />
    <glyph glyph-name="two.sinf" horiz-adv-x="712" 
d="M411 27h236v-184h-596v45q247 291 310.5 380t63.5 143q0 39 -21 62t-56 23q-38 0 -60.5 -24.5t-22.5 -65.5v-17h-200v15q0 125 75 197.5t206 72.5q126 0 205 -71.5t79 -186.5q0 -77 -43.5 -154.5t-175.5 -234.5z" />
    <glyph glyph-name="three.sinf" horiz-adv-x="704" 
d="M451 354q88 -21 140.5 -88t52.5 -161q0 -122 -83.5 -200.5t-213.5 -78.5q-126 0 -206 77t-83 199h187q2 -46 30 -74.5t72 -28.5q47 0 76.5 30.5t29.5 79.5t-31.5 77t-84.5 28h-124v37l137 230h-272v170h538v-36z" />
    <glyph glyph-name="four.sinf" horiz-adv-x="729" 
d="M682 159v-168h-72v-150h-188v150h-391v35l263 625h197l-207 -492h146l39 185h141v-185h72z" />
    <glyph glyph-name="five.sinf" horiz-adv-x="692" 
d="M342 373q132 0 215 -75t83 -193q0 -121 -83 -199.5t-210 -78.5q-128 0 -210 78t-82 198h187q0 -44 30 -74t75 -30t73.5 29.5t28.5 76.5t-31 77t-80 30h-244l-17 22l44 417h463v-170h-308l-11 -108h77z" />
    <glyph glyph-name="six.sinf" horiz-adv-x="735" 
d="M420 383q119 0 196 -73.5t77 -189.5q0 -132 -88 -215t-228 -83q-142 0 -230 82.5t-88 215.5q0 119 87 270l156 263h218l-143 -238q-2 -4 -22 -38q31 6 65 6zM375 -4q57 0 92.5 34.5t35.5 89.5t-35.5 89.5t-92.5 34.5q-54 0 -90 -35t-36 -89q0 -55 35.5 -89.5t90.5 -34.5z
" />
    <glyph glyph-name="seven.sinf" horiz-adv-x="645" 
d="M46 653h568v-24l-298 -788h-199l238 629h-309v183z" />
    <glyph glyph-name="eight.sinf" horiz-adv-x="727" 
d="M560 271q102 -68 102 -185q0 -119 -88 -187.5t-211 -68.5q-122 0 -210 68.5t-88 187.5q0 120 101 186q-80 65 -80 166q0 109 81.5 171t196.5 62t196 -62t81 -171q0 -106 -81 -167zM365 519q-40 0 -68.5 -23t-28.5 -63t28.5 -63.5t68.5 -23.5q39 0 67 23.5t28 64.5
q0 39 -28 62t-67 23zM365 -11q47 0 79 26.5t32 75.5q0 47 -33 73.5t-81 26.5q-46 0 -78.5 -26.5t-32.5 -73.5t33 -74.5t81 -27.5z" />
    <glyph glyph-name="nine.sinf" horiz-adv-x="735" 
d="M358 674q142 0 230 -82.5t88 -215.5q0 -119 -87 -271l-155 -262h-218l134 225q5 9 30 49q-32 -6 -64 -6q-119 0 -196 74t-77 191q0 133 87.5 215.5t227.5 82.5zM360 252q55 0 91 34.5t36 89.5q0 54 -36 88t-91 34q-57 0 -92.5 -34t-35.5 -88q0 -55 35.5 -89.5t92.5 -34.5
z" />
    <glyph glyph-name="zero.tf" horiz-adv-x="1218" 
d="M610 -25q-250 0 -397 190.5t-147 516.5q0 327 146 517t398 190t397.5 -190t145.5 -517q0 -326 -146.5 -516.5t-396.5 -190.5zM610 249q121 0 184.5 110.5t63.5 320.5t-64.5 322.5t-183.5 112.5q-121 0 -185 -111.5t-64 -321.5t64 -321.5t185 -111.5z" />
    <glyph glyph-name="one.tf" horiz-adv-x="1218" 
d="M780 273h326v-273h-948v273h334v827h-286v262h574v-1089z" />
    <glyph glyph-name="two.tf" horiz-adv-x="1218" 
d="M659 275h413v-275h-956v64q179 207 283 331t181 222t110 156t46.5 100t13.5 87q0 71 -43.5 114.5t-112.5 43.5q-72 0 -116 -45t-44 -117v-26h-293v30q0 190 123 310.5t325 120.5q201 0 328.5 -120t127.5 -308q0 -130 -79 -275t-307 -413z" />
    <glyph glyph-name="three.tf" horiz-adv-x="1218" 
d="M751 858q152 -34 242.5 -147.5t90.5 -273.5q0 -200 -137.5 -331t-345.5 -131q-203 0 -333.5 127t-137.5 328h292q4 -82 53 -131.5t126 -49.5q83 0 135.5 55t52.5 142t-57 138.5t-151 51.5h-198v55l246 409h-466v262h869v-54z" />
    <glyph glyph-name="four.tf" horiz-adv-x="1218" 
d="M1119 517v-256h-118v-261h-275v261h-654v53l449 1048h288l-362 -845h287l47 324h220v-324h118z" />
    <glyph glyph-name="five.tf" horiz-adv-x="1218" 
d="M600 886q212 0 349 -126.5t137 -320.5q0 -199 -136.5 -331.5t-339.5 -132.5q-206 0 -342 128.5t-137 324.5h296q1 -78 52.5 -128.5t130.5 -50.5q78 0 129.5 54t51.5 136q0 87 -56.5 142.5t-145.5 55.5h-383l-27 37l76 688h737v-261h-505l-25 -215h138z" />
    <glyph glyph-name="six.tf" horiz-adv-x="1218" 
d="M693 904q197 0 322.5 -122.5t125.5 -315.5q0 -215 -144 -353t-369 -138q-229 0 -373 137t-144 354q0 96 31.5 197.5t109.5 234.5l271 463h322q-50 -86 -141.5 -242t-136.5 -234q61 19 126 19zM626 247q96 0 158 61.5t62 157.5q0 98 -61.5 159t-158.5 61
q-95 0 -157.5 -61.5t-62.5 -158.5q0 -96 62.5 -157.5t157.5 -61.5z" />
    <glyph glyph-name="seven.tf" horiz-adv-x="1218" 
d="M132 1362h975v-39l-519 -1323h-303l437 1100h-590v262z" />
    <glyph glyph-name="eight.tf" horiz-adv-x="1218" 
d="M940 723q177 -113 177 -312q0 -191 -143 -313.5t-366 -122.5q-224 0 -365.5 121.5t-141.5 314.5q0 201 177 313q-140 110 -140 278q0 171 131.5 280t340.5 109t339 -108t130 -281q0 -175 -139 -279zM610 1153q-81 0 -133.5 -45.5t-52.5 -114.5t52.5 -114t133.5 -45
t132.5 45t51.5 114t-51.5 114.5t-132.5 45.5zM610 226q97 0 156.5 52.5t59.5 136.5t-59.5 136.5t-156.5 52.5t-157.5 -52.5t-60.5 -136.5t60.5 -136.5t157.5 -52.5z" />
    <glyph glyph-name="nine.tf" horiz-adv-x="1218" 
d="M593 1391q229 0 373 -136.5t144 -353.5q0 -96 -31.5 -198t-109.5 -235l-272 -468h-322q42 72 100 171.5t100.5 172.5t79.5 137q-61 -19 -127 -19q-195 0 -321.5 122.5t-126.5 316.5q0 215 144 352.5t369 137.5zM595 677q102 0 168 62.5t66 161.5q0 98 -66 160t-168 62
t-168 -62t-66 -160q0 -99 65.5 -161.5t168.5 -62.5z" />
    <glyph glyph-name="zero.dnom" horiz-adv-x="806" 
d="M404 -16q-156 0 -247.5 113.5t-91.5 308.5q0 194 91 307t248 113t247.5 -113t90.5 -307q0 -196 -91 -309t-247 -113zM404 177q63 0 98 58.5t35 168.5q0 109 -35 169t-98 60t-98 -59.5t-35 -167.5q0 -109 35 -169t98 -60z" />
    <glyph glyph-name="one.dnom" horiz-adv-x="491" 
d="M42 810h344v-810h-209v635h-135v175z" />
    <glyph glyph-name="two.dnom" horiz-adv-x="712" 
d="M411 185h236v-183h-596v45q247 291 310.5 380t63.5 143q0 39 -21 61.5t-56 22.5q-38 0 -60.5 -24.5t-22.5 -65.5v-16h-200v15q0 125 75 197.5t206 72.5q126 0 205 -71.5t79 -186.5q0 -77 -43.5 -155.5t-175.5 -234.5z" />
    <glyph glyph-name="three.dnom" horiz-adv-x="704" 
d="M451 513q88 -21 140.5 -88t52.5 -161q0 -121 -83.5 -199.5t-213.5 -78.5q-126 0 -206 76.5t-83 198.5h187q2 -46 30 -74.5t72 -28.5q47 0 76.5 31t29.5 80t-31 76.5t-85 27.5h-124v37l137 230h-272v170h538v-36z" />
    <glyph glyph-name="four.dnom" horiz-adv-x="729" 
d="M682 318v-168h-72v-150h-188v150h-391v35l264 625h196l-206 -492h146l38 185h141v-185h72z" />
    <glyph glyph-name="five.dnom" horiz-adv-x="692" 
d="M342 532q132 0 215 -75t83 -193q0 -121 -83 -199.5t-210 -78.5q-128 0 -210 77.5t-82 197.5h187q0 -44 30 -73.5t75 -29.5t73.5 29.5t28.5 76.5t-31 77t-80 30h-244l-17 22l44 417h463v-170h-308l-11 -108h77z" />
    <glyph glyph-name="six.dnom" horiz-adv-x="735" 
d="M420 540q119 0 196 -73.5t77 -189.5q0 -132 -88 -215t-228 -83q-142 0 -230 82.5t-88 215.5q0 119 87 270l156 263h218l-143 -238q-4 -8 -12 -21t-10 -16q26 5 65 5zM375 153q57 0 92.5 34.5t35.5 89.5t-35.5 89.5t-92.5 34.5q-54 0 -90 -35t-36 -89q0 -55 35.5 -89.5
t90.5 -34.5z" />
    <glyph glyph-name="seven.dnom" horiz-adv-x="645" 
d="M47 810h569v-24l-298 -788h-199l238 629h-310v183z" />
    <glyph glyph-name="eight.dnom" horiz-adv-x="727" 
d="M560 440q102 -68 102 -185q0 -119 -88 -187.5t-211 -68.5q-122 0 -210 68.5t-88 187.5q0 120 101 186q-80 65 -80 166q0 109 81.5 171t196.5 62t196 -62t81 -171q0 -106 -81 -167zM365 688q-40 0 -68.5 -23t-28.5 -63t28.5 -63.5t68.5 -23.5q39 0 67 24t28 65
q0 39 -28 61.5t-67 22.5zM365 159q47 0 79 26.5t32 74.5q0 47 -33 73.5t-81 26.5q-46 0 -78.5 -26.5t-32.5 -73.5t33 -74t81 -27z" />
    <glyph glyph-name="nine.dnom" horiz-adv-x="735" 
d="M358 833q142 0 230 -82.5t88 -215.5q0 -120 -87 -272l-155 -261h-218l134 224q10 18 30 50q-32 -6 -64 -6q-119 0 -196 74t-77 191q0 133 87.5 215.5t227.5 82.5zM360 411q55 0 91 34.5t36 89.5q0 54 -36 88t-91 34q-57 0 -92.5 -34t-35.5 -88q0 -55 35.5 -89.5
t92.5 -34.5z" />
    <glyph glyph-name="zero.numr" horiz-adv-x="806" 
d="M404 611q-156 0 -247.5 113.5t-91.5 308.5q0 194 91 307t248 113t247.5 -113t90.5 -307q0 -196 -91 -309t-247 -113zM404 804q63 0 98 58.5t35 168.5q0 109 -35 169t-98 60t-98 -59.5t-35 -167.5q0 -109 35 -169t98 -60z" />
    <glyph glyph-name="one.numr" horiz-adv-x="491" 
d="M42 1434h344v-810h-209v635h-135v175z" />
    <glyph glyph-name="two.numr" horiz-adv-x="712" 
d="M411 809h236v-183h-596v44q172 203 246 296.5t101 141.5t27 86q0 39 -21 61.5t-56 22.5q-38 0 -60.5 -24.5t-22.5 -65.5v-16h-200v15q0 125 75 197.5t206 72.5q126 0 205 -71.5t79 -186.5q0 -77 -43.5 -155.5t-175.5 -234.5z" />
    <glyph glyph-name="three.numr" horiz-adv-x="704" 
d="M451 1137q88 -21 140.5 -88t52.5 -161q0 -122 -83.5 -200.5t-213.5 -78.5q-126 0 -206 77t-83 199h187q2 -46 30 -74.5t72 -28.5q47 0 76.5 30.5t29.5 79.5t-31.5 77t-84.5 28h-124v36l137 231h-272v170h538v-36z" />
    <glyph glyph-name="four.numr" horiz-adv-x="729" 
d="M682 942v-168h-72v-150h-188v150h-391v35l264 625h196l-206 -492h146l38 185h141v-185h72z" />
    <glyph glyph-name="five.numr" horiz-adv-x="692" 
d="M342 1155q132 0 215 -75t83 -192q0 -121 -83 -200t-210 -79q-128 0 -210 78t-82 198h187q0 -44 30 -73.5t75 -29.5t73.5 29.5t28.5 76.5t-31 77t-80 30h-244l-17 22l44 417h463v-170h-308l-11 -109h77z" />
    <glyph glyph-name="six.numr" horiz-adv-x="735" 
d="M420 1164q119 0 196 -73.5t77 -189.5q0 -132 -88 -215t-228 -83q-142 0 -230 82.5t-88 215.5q0 118 87 269l156 264h218l-143 -238q-2 -4 -22 -38q32 6 65 6zM375 777q57 0 92.5 34.5t35.5 89.5t-35.5 89.5t-92.5 34.5q-54 0 -90 -35t-36 -89q0 -55 35.5 -89.5
t90.5 -34.5z" />
    <glyph glyph-name="seven.numr" horiz-adv-x="645" 
d="M46 1435h568v-24l-298 -787h-199l238 628h-309v183z" />
    <glyph glyph-name="eight.numr" horiz-adv-x="727" 
d="M560 1054q102 -68 102 -186q0 -119 -88 -187t-211 -68t-210.5 68t-87.5 187q0 121 101 187q-80 66 -80 166q0 109 81.5 170.5t196.5 61.5t196 -61.5t81 -170.5q0 -105 -81 -167zM365 1302q-40 0 -68.5 -23.5t-28.5 -63.5t28 -63t69 -23q39 0 67 23.5t28 64.5q0 39 -28 62
t-67 23zM365 772q47 0 79 26.5t32 74.5q0 47 -33.5 74t-80.5 27q-46 0 -78.5 -27t-32.5 -74t33 -74t81 -27z" />
    <glyph glyph-name="nine.numr" horiz-adv-x="735" 
d="M358 1457q142 0 230 -83t88 -216q0 -119 -87 -271l-155 -261h-218l134 224q10 18 30 50q-37 -7 -64 -7q-119 0 -196 74t-77 191q0 133 87.5 216t227.5 83zM360 1035q55 0 91 34t36 89q0 54 -36.5 88.5t-90.5 34.5q-57 0 -92.5 -34.5t-35.5 -88.5q0 -55 35.5 -89t92.5 -34
z" />
    <glyph glyph-name="zero.sups" horiz-adv-x="806" 
d="M404 816q-156 0 -247.5 113.5t-91.5 308.5q0 194 91 307t248 113t247.5 -113t90.5 -307q0 -196 -91 -309t-247 -113zM404 1009q63 0 98 58.5t35 168.5q0 109 -35 169t-98 60t-98 -59.5t-35 -167.5q0 -109 35 -169t98 -60z" />
    <glyph glyph-name="one.sups" horiz-adv-x="491" 
d="M42 1638h344v-810h-209v635h-135v175z" />
    <glyph glyph-name="two.sups" horiz-adv-x="712" 
d="M411 1014h236v-184h-596v45q247 291 310.5 380t63.5 143q0 39 -21 62t-56 23q-38 0 -60.5 -24.5t-22.5 -65.5v-16h-200v14q0 125 75 197.5t206 72.5q126 0 205 -71.5t79 -186.5q0 -77 -43.5 -154.5t-175.5 -234.5z" />
    <glyph glyph-name="three.sups" horiz-adv-x="704" 
d="M451 1341q88 -21 140.5 -87.5t52.5 -160.5q0 -122 -83.5 -200.5t-213.5 -78.5q-126 0 -206 77t-83 199h187q2 -46 30 -74.5t72 -28.5q47 0 76.5 30.5t29.5 79.5t-31 76.5t-85 27.5h-124v37l137 230h-272v170h538v-35z" />
    <glyph glyph-name="four.sups" horiz-adv-x="729" 
d="M682 1147v-168h-72v-151h-188v151h-391v35l263 624h197l-207 -491h146l39 184h141v-184h72z" />
    <glyph glyph-name="five.sups" horiz-adv-x="692" 
d="M342 1360q132 0 215 -75t83 -192q0 -121 -83 -200t-210 -79q-128 0 -210 78t-82 198h187q0 -44 30 -74t75 -30t73.5 30t28.5 77t-31 76.5t-80 29.5h-244l-17 23l44 416h463v-170h-308l-11 -108h77z" />
    <glyph glyph-name="six.sups" horiz-adv-x="735" 
d="M420 1369q119 0 196 -73.5t77 -189.5q0 -133 -88 -216t-228 -83q-142 0 -230 83t-88 216q0 118 87 269l156 263h218l-143 -238q-4 -8 -12 -21t-10 -16q32 6 65 6zM375 982q57 0 92.5 34.5t35.5 89.5t-35.5 89t-92.5 34q-54 0 -90 -34.5t-36 -88.5q0 -55 35.5 -89.5
t90.5 -34.5z" />
    <glyph glyph-name="seven.sups" horiz-adv-x="645" 
d="M46 1638h568v-23l-298 -788h-199l238 628h-309v183z" />
    <glyph glyph-name="eight.sups" horiz-adv-x="727" 
d="M560 1259q102 -68 102 -186q0 -119 -88 -187.5t-211 -68.5q-122 0 -210 68.5t-88 187.5q0 120 101 186q-80 66 -80 167q0 109 81.5 170.5t196.5 61.5t196 -61.5t81 -170.5q0 -106 -81 -167zM365 1507q-40 0 -68.5 -23.5t-28.5 -63.5t28 -63t69 -23q39 0 67 23.5t28 64.5
q0 39 -28 62t-67 23zM365 977q47 0 79 26.5t32 74.5q0 47 -33.5 74t-80.5 27q-46 0 -78.5 -27t-32.5 -74t33 -74t81 -27z" />
    <glyph glyph-name="nine.sups" horiz-adv-x="735" 
d="M358 1661q142 0 230 -82.5t88 -215.5q0 -119 -87 -271l-155 -262h-218l134 225q5 9 30 49q-32 -6 -64 -6q-119 0 -196 74t-77 191q0 133 87.5 215.5t227.5 82.5zM360 1239q55 0 91 34.5t36 89.5q0 54 -36 88t-91 34q-57 0 -92.5 -34t-35.5 -88q0 -55 35.5 -89.5
t92.5 -34.5z" />
    <glyph glyph-name="bullet.case" horiz-adv-x="800" 
d="M401 485q-110 0 -184.5 74t-74.5 184q0 111 74 185t185 74q112 0 185.5 -73.5t73.5 -185.5q0 -111 -74 -184.5t-185 -73.5z" />
    <glyph glyph-name="braceleft.case" horiz-adv-x="772" 
d="M575 -29h85v-264h-196q-109 0 -186 76.5t-77 186.5v484q0 47 -33.5 80.5t-82.5 33.5h-37v247h37q49 0 82.5 33.5t33.5 82.5v490q0 109 77 185t186 76h196v-261h-85q-36 0 -57.5 -21t-21.5 -56v-397q0 -87 -46 -156t-121 -97q75 -30 121 -99t46 -157v-390q0 -35 21.5 -56
t57.5 -21z" />
    <glyph glyph-name="braceright.case" horiz-adv-x="772" 
d="M632 815h37v-247h-37q-49 0 -82.5 -33.5t-33.5 -80.5v-484q0 -110 -77 -186.5t-186 -76.5h-196v264h85q36 0 57.5 21t21.5 56v390q0 88 45.5 157t120.5 99q-74 28 -120 97t-46 156v397q0 35 -21.5 56t-57.5 21h-85v261h196q109 0 186 -76t77 -185v-490q0 -49 33.5 -82.5
t82.5 -33.5z" />
    <glyph glyph-name="bracketleft.case" horiz-adv-x="735" 
d="M173 -293v1976h472v-252h-192v-1469h196v-255h-476z" />
    <glyph glyph-name="bracketright.case" horiz-adv-x="735" 
d="M562 -293h-476v255h196v1469h-192v252h472v-1976z" />
    <glyph glyph-name="parenleft.case" horiz-adv-x="731" 
d="M387 -296q-140 208 -216 460.5t-76 528.5t76 530t215 463h331q-60 -81 -114.5 -182.5t-103.5 -228t-78 -278.5t-29 -304t28.5 -303.5t76 -277.5t102.5 -227.5t115 -180.5h-327z" />
    <glyph glyph-name="parenright.case" horiz-adv-x="731" 
d="M343 -296h-327q60 79 115 180.5t102.5 227.5t76 277.5t28.5 303.5t-29 304t-78 278.5t-103.5 228t-114.5 182.5h331q139 -209 215 -463t76 -530t-76 -528.5t-216 -460.5z" />
    <glyph glyph-name="emdash.case" horiz-adv-x="1869" 
d="M135 558v288h1599v-288h-1599z" />
    <glyph glyph-name="endash.case" horiz-adv-x="1329" 
d="M135 558v288h1059v-288h-1059z" />
    <glyph glyph-name="hyphen.case" horiz-adv-x="937" 
d="M135 562v288h668v-288h-668z" />
    <glyph glyph-name="guillemotleft.case" horiz-adv-x="1394" 
d="M394 235l-325 419v35l325 419h352l-332 -436l332 -437h-352zM962 235l-325 419v35l325 419h352l-331 -436l331 -437h-352z" />
    <glyph glyph-name="guillemotright.case" horiz-adv-x="1394" 
d="M433 236h-352l331 436l-331 436h352l325 -418v-36zM1001 236h-352l332 436l-332 436h352l326 -418v-36z" />
    <glyph glyph-name="guilsinglleft.case" horiz-adv-x="827" 
d="M394 235l-325 419v35l325 419h352l-332 -436l332 -437h-352z" />
    <glyph glyph-name="guilsinglright.case" horiz-adv-x="827" 
d="M433 235h-352l331 437l-331 436h352l325 -419v-35z" />
    <glyph glyph-name="cent.tf" horiz-adv-x="1218" 
d="M1166 414q-31 -164 -142.5 -277t-272.5 -146v-146h-235v145q-193 38 -316.5 188t-123.5 352q0 204 123 352t317 186v162h235v-163q159 -32 268.5 -142.5t142.5 -272.5h-284q-34 74 -100 115.5t-148 41.5q-113 0 -188.5 -80t-75.5 -201q0 -119 76.5 -200t187.5 -81
q83 0 148 44t101 123h287z" />
    <glyph glyph-name="currency.tf" horiz-adv-x="1241" 
d="M1156 250l-171 -169l-143 145q-102 -59 -225 -59q-119 0 -221 58l-137 -144l-170 171l135 142q-61 105 -61 227q0 130 68 239l-135 138l171 170l143 -143q97 50 207 50q112 0 211 -52l144 145l170 -170l-138 -139q67 -110 67 -238q0 -123 -59 -225zM408 623
q0 -85 63 -148t148 -63t145.5 62.5t60.5 148.5q0 84 -60.5 145.5t-145.5 61.5q-84 0 -147.5 -61t-63.5 -146z" />
    <glyph glyph-name="dollar.tf" horiz-adv-x="1218" 
d="M1138 415q0 -180 -110.5 -289t-292.5 -137v-144h-236v143q-193 29 -305.5 150t-112.5 310h301q0 -91 67 -140.5t164 -49.5q89 0 155.5 42t66.5 112q0 20 -4.5 36.5t-17.5 30t-24 24t-35 21t-38.5 16.5t-48 15.5t-49 13t-55.5 13.5h-1l-1 1q-177 42 -257 81
q-188 94 -202 292q-1 17 -1 35q0 167 101 270t280 129v133h238v-133q181 -28 279.5 -141.5t98.5 -291.5h-296q0 83 -59.5 127t-149.5 44q-80 0 -137.5 -32t-57.5 -92q0 -23 8 -42t28 -34t37 -25.5t53.5 -22t58 -17t68.5 -17.5l12 -3q47 -12 72.5 -18.5t71.5 -20.5t73.5 -26
t66.5 -32.5t63 -41.5t51 -51.5t42 -64.5t25 -78.5t10 -94.5z" />
    <glyph glyph-name="Euro.tf" horiz-adv-x="1331" 
d="M611 397q58 -82 150.5 -126t207.5 -44q136 0 238 46v-260q-120 -45 -249 -45q-224 0 -400 116.5t-256 312.5h-229l53 220h124q-3 33 -3 67q0 20 2 56h-174l54 220h169q79 201 258 321.5t405 120.5q164 0 301 -58l-60 -244q-43 19 -110.5 31.5t-127.5 12.5
q-116 0 -209 -48t-151 -136h555l-56 -220h-574q-2 -18 -2 -56q0 -23 4 -67h542l-55 -220h-407z" />
    <glyph glyph-name="florin.tf" horiz-adv-x="1218" 
d="M858 1160q-50 0 -84 -28.5t-39 -76.5l-16 -131h266l-33 -226h-257l-117 -829q-21 -152 -129.5 -245t-265.5 -93h-168l36 258h87q65 0 110 38.5t55 103.5l106 767h-175l32 226h174l22 161q16 131 109.5 210.5t232.5 79.5h240l-28 -215h-158z" />
    <glyph glyph-name="uni20BD.tf" horiz-adv-x="1218" 
d="M754 561h-217v-112h327v-209h-327v-240h-293v240h-140v209h140v123h-140v234h140v556h510q185 0 298 -110t113 -291q0 -179 -113 -289.5t-298 -110.5zM877 961q0 63 -43.5 104t-109.5 41h-187v-289h187q66 0 109.5 41t43.5 103z" />
    <glyph glyph-name="sterling.tf" horiz-adv-x="1218" 
d="M876 398h265v-398h-1056v203l126 38v296h-97v235h97v218q0 184 124 297.5t323 113.5q194 0 308.5 -111t114.5 -298v-32h-267v15q0 77 -42 122.5t-114 45.5t-115.5 -45.5t-43.5 -123.5v-202h277v-235h-277v-287h377v148z" />
    <glyph glyph-name="yen.tf" horiz-adv-x="1218" 
d="M755 611v-48h332v-165h-332v-96h332v-159h-332v-143h-293v143h-332v159h332v96h-332v165h332v43l-480 756h302l323 -532l328 532h302z" />
    <glyph glyph-name="uni0308.case" 
d="M-995 1574v276h317v-276h-317zM-516 1574v276h317v-276h-317z" />
    <glyph glyph-name="uni0307.case" 
d="M-519 1575v275h310v-275h-310z" />
    <glyph glyph-name="gravecomb.case" 
d="M-733 1572l-205 290h318l113 -290h-226z" />
    <glyph glyph-name="acutecomb.case" 
d="M-781 1572l114 290h318l-206 -290h-226z" />
    <glyph glyph-name="uni030B.case" 
d="M-1037 1572l95 290h279l-176 -290h-198zM-648 1572l151 290h292l-241 -290h-202z" />
    <glyph glyph-name="uni0302.case" 
d="M-227 1572h-257l-149 138l-148 -138h-257l235 290h339z" />
    <glyph glyph-name="uni030C.case" 
d="M-498 1862h256l-237 -290h-339l-235 290h257l148 -139z" />
    <glyph glyph-name="uni0306.case" 
d="M-549 1553q-156 0 -251.5 85t-95.5 224h230v-9q0 -49 31 -77.5t84 -28.5t84 28.5t31 77.5v9h235q0 -139 -95.5 -224t-252.5 -85z" />
    <glyph glyph-name="uni030A.case" 
d="M-446 1525q-124 0 -200 72t-76 189q0 118 76 190t200 72q123 0 198 -72t75 -190q0 -117 -75.5 -189t-197.5 -72zM-446 1671q51 0 85 32.5t34 82.5t-34 82.5t-85 32.5q-52 0 -86.5 -32.5t-34.5 -82.5t34.5 -82.5t86.5 -32.5z" />
    <glyph glyph-name="tildecomb.case" 
d="M-478 1561q-39 0 -80 13.5t-57 22.5t-57 34q-65 40 -90 40q-31 0 -52.5 -23.5t-21.5 -60.5v-16h-165v22q0 129 63 204t174 75q89 0 179 -66q63 -46 103 -46q33 0 53 23t20 62v18h166v-22q0 -129 -63 -204.5t-172 -75.5z" />
    <glyph glyph-name="uni0304.case" 
d="M-880 1592v252h641v-252h-641z" />
    <glyph glyph-name="uni0326.case" 
d="M-336 -554v118q58 4 90 35.5t32 81.5h-134v237h271v-218q0 -109 -69.5 -177.5t-189.5 -76.5z" />
    <glyph glyph-name="uni0327.case" 
d="M-360 -60q81 -20 127 -69t46 -122q0 -97 -78 -157t-200 -60h-148v150h145q35 0 57.5 19t22.5 50t-22.5 50t-57.5 19h-86l-12 16l58 256h186z" />
    </font>
</defs>
</svg>
